Восхождение черного волка / The Rise of Black Wolf (Боб Лэндис / Bob Landis) [2010, Документальный, SATRip] National Geographic

Научно-популярные фильмы Национального географического общества
Торрент Сидеров Личеров Размер
torrent_4353628.torrent
0 0 834.3 МБ
Аватара пользователя
Солнышко
Сообщения: 22944
Зарегистрирован: 13 янв 2016, 22:10

Восхождение черного волка / The Rise of Black Wolf (Боб Лэндис / Bob Landis) [2010, Документальный, SATRip] National Geographic

Сообщение Солнышко » 22 мар 2018, 22:28

Восхождение черного волка / The Rise of Black Wolf
Год выпуска: 2010
Страна: США
Производство: National Geographic Channel
Жанр: Документальный
Продолжительность: 00:44:52
Перевод: Одноголосый закадровый
Русские субтитры: нет
Режиссер: Боб Лэндис / Bob Landis
Описание: У волков есть свой свод законов - уважай иерархию, сохраняй порядок, соблюдай правила. Но, эта история о бунтовщике. Волке, что появился в национальном парке Йеллоустон, о несравнимом ни с кем вольном волке, играющем по собственным правилам. Он позволил по новому взглянуть на разум волка...

качество: SATRip
формат: AVI
видеокодек: XviD
аудиокодек: AC3
Видео: MPEG-4 Visual, XviD, 720 х 400 (16:9), 25,000 кадров/сек, 2191 Кбит/сек, 0.304 бит/пиксель
Аудио: Русский, Audio Coding 3, 48,0 КГц, 192 Кбит/сек, 2 канала
Аудио 2: Английский, MPEG Audio Layer 3, 44,1 КГц, 192 Кбит/сек, 2 канала
Общее
Полное имя : E:\torrent\Восхождение черного волка.avi
Формат : AVI
Формат/Информация : Audio Video Interleave
Размер файла : 834 Мбайт
Продолжительность : 44 м.
Общий поток : 2593 Кбит/сек
Программа кодирования : Nandub v1.0rc2
Библиотека кодирования : Nandub build 1853/release
Видео
Идентификатор : 0
Формат : MPEG-4 Visual
Профиль формата : Advanced Simple@L5
Параметр BVOP формата : 2
Параметр QPel формата : Нет
Параметр GMC формата : Без точки перехода
Параметр матрицы формата : Default (H.263)
Идентификатор кодека : XVID
Идентификатор кодека/Подсказка : XviD
Продолжительность : 44 м.
Битрейт : 2191 Кбит/сек
Ширина : 720 пикселей
Высота : 400 пикселей
Соотношение сторон : 16:9
Частота кадров : 25,000 кадров/сек
Цветовое пространство : YUV
Субдискретизация насыщенности : 4:2:0
Битовая глубина : 8 бит
Тип развёртки : Прогрессивная
Метод сжатия : С потерями
Бит/(Пиксели*Кадры) : 0.304
Размер потока : 705 Мбайт (85%)
Библиотека кодирования : XviD 1.2.1 (UTC 2008-12-04)
Аудио #1
Идентификатор : 1
Формат : AC-3
Формат/Информация : Audio Coding 3
Расширение режима : CM (complete main)
Параметр Endianness формата : Big
Идентификатор кодека : 2000
Продолжительность : 44 м.
Вид битрейта : Постоянный
Битрейт : 192 Кбит/сек
Каналы : 2 канала
Расположение каналов : Front: L R
Частота : 48,0 КГц
Битовая глубина : 16 бит
Метод сжатия : С потерями
Размер потока : 61,8 Мбайт (7%)
Выравнивание : Соединение по промежуткам
Продолжительность промежутка : 40 мс. (1,00 видеокадр)
Время предзагрузки промежутка : 480 мс.
Аудио #2
Идентификатор : 2
Формат : MPEG Audio
Версия формата : Version 1
Профиль формата : Layer 3
Режим : Joint stereo
Расширение режима : MS Stereo
Идентификатор кодека : 55
Идентификатор кодека/Подсказка : MP3
Продолжительность : 44 м.
Вид битрейта : Постоянный
Битрейт : 192 Кбит/сек
Каналы : 2 канала
Частота : 44,1 КГц
Метод сжатия : С потерями
Задержка видео : 1 мс.
Размер потока : 61,8 Мбайт (7%)
Выравнивание : Соединение по промежуткам
Продолжительность промежутка : 26 мс. (0,65 видеокадр)
Время предзагрузки промежутка : 497 мс.
У вас нет необходимых прав для просмотра вложений в этом сообщении.