Lick Library - Web Lesson: Testament - "More Than Meets The Eye" [2010, CamRip, ENG] (Видеоурок)

Гитара, бас гитара, балалайка, скрипка, виолончель и т.д.
Торрент Сидеров Личеров Размер
torrent_3435484.torrent
0 0 157.59 МБ
Аватара пользователя
Stepan
Администратор
Сообщения: 52267
Зарегистрирован: 05 ноя 2011, 20:36

Lick Library - Web Lesson: Testament - "More Than Meets The Eye" [2010, CamRip, ENG] (Видеоурок)

Сообщение Stepan » 22 мар 2018, 22:28

Lick Library - Web Lesson: Testament - "More Than Meets The Eye" [2010 г., CamRip, ENG]
Andy James
Страна: UK
Тематика: Обучающее видео, демонстрация песен
Тип раздаваемого материала: Видеоурок
Продолжительность: 00:34:01 + Jam Track: 00:04:32
Год выпуска: 2010
Язык: Английский
Перевод: Отсутствует
Описание: Learn to play Testament's track "More Than Meets The Eye" note for note with Andy James.
Качество : CAMRip
Формат: WMV
Видео кодек: WMVx
Аудио кодек: WMA
Видео: 1024*576 (16:9), 25 fps, 472 kbps, VC-1 (WMV3)
Аудио: English, 128 kbps, 44.1 KHz, 2 channels, WMA (Version 2)
Фанатам Testament стоит посмотреть еще на . Отличные рифы, отличные соло, класный материал для изучения.
Format : Windows Media
File size : 68.7 MiB
Duration : 15mn 14s
Overall bit rate mode : Constant
Overall bit rate : 631 Kbps
Maximum Overall bit rate : 608 Kbps
Movie name : Online Streaming Lesson
Performer : Roadrock Music International Ltd
Encoded date : UTC 2009-04-14 14:23:09.937
Copyright : Roadrock Music International Ltd
Comment : Online Streaming Lesson
Video
ID : 2
Format : VC-1
Format profile : MP@HL
Codec ID : WMV3
Codec ID/Info : Windows Media Video 9
Codec ID/Hint : WMV3
Description of the codec : Windows Media Video 9
Duration : 15mn 14s
Bit rate mode : Constant
Bit rate : 472 Kbps
Width : 1 024 pixels
Height : 576 pixels
Display aspect ratio : 16:9
Frame rate : 25.000 fps
Bit depth : 8 bits
Scan type : Progressive
Compression mode : Lossy
Bits/(Pixel*Frame) : 0.032
Stream size : 51.5 MiB (75%)
Language : English (US)
Audio
ID : 1
Format : WMA
Format version : Version 2
Codec ID : 161
Codec ID/Info : Windows Media Audio
Description of the codec : Windows Media Audio 9.2 - 128 kbps, 44 kHz, stereo 2-pass CBR
Duration : 15mn 14s
Bit rate mode : Constant
Bit rate : 128 Kbps
Channel(s) : 2 channels
Sampling rate : 44.1 KHz
Bit depth : 16 bits
Stream size : 14.0 MiB (20%)
Language : English (US)
Format : Windows Media
File size : 84.7 MiB
Duration : 18mn 47s
Overall bit rate mode : Constant
Overall bit rate : 630 Kbps
Maximum Overall bit rate : 608 Kbps
Movie name : Online Streaming Lesson
Performer : Roadrock Music International Ltd
Encoded date : UTC 2009-04-14 13:17:17.968
Copyright : Roadrock Music International Ltd
Comment : Online Streaming Lesson
Video
ID : 2
Format : VC-1
Format profile : MP@HL
Codec ID : WMV3
Codec ID/Info : Windows Media Video 9
Codec ID/Hint : WMV3
Description of the codec : Windows Media Video 9
Duration : 18mn 47s
Bit rate mode : Constant
Bit rate : 472 Kbps
Width : 1 024 pixels
Height : 576 pixels
Display aspect ratio : 16:9
Frame rate : 25.000 fps
Bit depth : 8 bits
Scan type : Progressive
Compression mode : Lossy
Bits/(Pixel*Frame) : 0.032
Stream size : 63.4 MiB (75%)
Language : English (US)
Audio
ID : 1
Format : WMA
Format version : Version 2
Codec ID : 161
Codec ID/Info : Windows Media Audio
Description of the codec : Windows Media Audio 9.2 - 128 kbps, 44 kHz, stereo 2-pass CBR
Duration : 18mn 47s
Bit rate mode : Constant
Bit rate : 128 Kbps
Channel(s) : 2 channels
Sampling rate : 44.1 KHz
Bit depth : 16 bits
Stream size : 17.2 MiB (20%)
Language : English (US)
Format : MPEG Audio
File size : 4.16 MiB
Duration : 4mn 32s
Overall bit rate : 128 Kbps
Album : www.licklibrary.com
Track name : More Than Meets The Eye
Performer : Roadrock Music International Ltd
Audio
Format : MPEG Audio
Format version : Version 1
Format profile : Layer 3
Mode : Joint stereo
Mode extension : MS Stereo
Duration : 4mn 33s
Bit rate mode : Constant
Bit rate : 128 Kbps
Channel(s) : 2 channels
Sampling rate : 44.1 KHz
Compression mode : Lossy
Stream size : 4.16 MiB (100%)
У вас нет необходимых прав для просмотра вложений в этом сообщении.