80-е: Десятилетие, которое сотворило нас / The '80s: The Decade That Made Us [2013, Документальный, познавательный., DVB] VO (VoiceOver)

Научно-популярные фильмы Национального географического общества
Торрент Сидеров Личеров Размер
torrent_4450411.torrent
0 0 6.96 ГБ
Аватара пользователя
Солнышко
Сообщения: 22944
Зарегистрирован: 13 янв 2016, 22:10

80-е: Десятилетие, которое сотворило нас / The '80s: The Decade That Made Us [2013, Документальный, познавательный., DVB] VO (VoiceOver)

Сообщение Солнышко » 22 мар 2018, 22:28


The '80s: The Decade That Made Us
80-е: Десятилетие, которое сотворило нас



Год выпуска: 2013
Страна: США
Жанр: Документальный, познавательный, новая история
Продолжительность: 9 x 00:44:59
Перевод: Профессиональный (Одноголосый закадровый) АРК-ТВ
Текст читали: Игорь Тарадайкин, Дмитрий Поляновский, Денис Некрасов, Михаил Тихонов.
Субтитры: Отсутствуют
Производство: Twofour Broadcast LTD
Описание: Путешествие во времена, наполненные незабываемыми моментами истории, культурными событиями, новыми тенденциями и технологиями 80-х годов, которые сформировали мир таким, каким мы знаем его сегодня. Снятая в стиле программы «История о нас», эта программа представит вам интервью с ключевыми фигурами десятилетия, музыку, фотографии и реконструкции прошлого.

Качество: DVB
Формат: MPEG-TS
Видео: MPEG4 AVC, 720x576 (16:9), 25.00fps, ~2300 Kbps avg, 0.197 bit/pixel
Аудио: MPEG Audio Layer 2, 48000Hz stereo, ~192kbps avg [RUS]


Описание:
Рассказ о людях и событиях, сформировавших сегодняшний мир, от попытки покушения на Рональда Рейгана до Стива Джобса и джинсов "Levi's".
Код:

Код: Выделить всё

Общее
Идентификатор                            : 1 (0x1)
Полное имя                               : 01. Революционеры.ts
Формат                                   : MPEG-TS
Размер файла                             : 758 Мбайт
Продолжительность                        : 44 м.
Режим общего битрейта                    : Переменный
Общий поток                              : 2354 Кбит/сек
Видео
Идентификатор                            : 501 (0x1F5)
Идентификатор меню                       : 1 (0x1)
Формат                                   : AVC
Формат/Информация                        : Advanced Video Codec
Профиль формата                          : Main@L3.0
Параметр CABAC формата                   : Да
Параметр ReFrames формата                : 3 кадра
Идентификатор кодека                     : 27
Продолжительность                        : 44 м.
Битрейт                                  : 2044 Кбит/сек
Ширина                                   : 720 пикселей
Высота                                   : 576 пикселей
Соотношение сторон                       : 16:9
Частота кадров                           : 25,000 кадров/сек
Стандарт вещания                         : Component
Цветовое пространство                    : YUV
Субдискретизация насыщенности            : 4:2:0
Битовая глубина                          : 8 бит
Тип развёртки                            : Чересстрочная
Порядок развёртки                        : Верхнее поле первое
Бит/(Пиксели*Кадры)                      : 0.197
Размер потока                            : 658 Мбайт (87%)
Основные цвета                           : BT.601 PAL
Характеристики трансфера                 : BT.470 System B, BT.470 System G
Коэффициенты матрицы                     : BT.601
Аудио
Идентификатор                            : 502 (0x1F6)
Идентификатор меню                       : 1 (0x1)
Формат                                   : MPEG Audio
Версия формата                           : Version 1
Профиль формата                          : Layer 2
Идентификатор кодека                     : 3
Продолжительность                        : 44 м.
Вид битрейта                             : Постоянный
Битрейт                                  : 192 Кбит/сек
Каналы                                   : 2 канала
Частота                                  : 48,0 КГц
Метод сжатия                             : С потерями
Размер потока                            : 61,8 Мбайт (8%)
Язык                                     : Russian

Описание:
Проживите вновь самые знаменитые и напряженные матчи и вспомните замечательных игроков 80-х, определивших развитие футбола на долгие годы вперед.
Код:

Код: Выделить всё

Общее
Идентификатор                            : 1 (0x1)
Полное имя                               : The 80s. The Decade That Made Us [DVB_2013]\02. Величайшие футбольные моменты.ts
Формат                                   : MPEG-TS
Размер файла                             : 973 Мбайт
Продолжительность                        : 44 м.
Режим общего битрейта                    : Переменный
Общий поток                              : 3023 Кбит/сек
Видео
Идентификатор                            : 501 (0x1F5)
Идентификатор меню                       : 1 (0x1)
Формат                                   : AVC
Формат/Информация                        : Advanced Video Codec
Профиль формата                          : Main@L3.0
Параметр CABAC формата                   : Да
Параметр ReFrames формата                : 3 кадра
Идентификатор кодека                     : 27
Продолжительность                        : 44 м.
Битрейт                                  : 2679 Кбит/сек
Ширина                                   : 720 пикселей
Высота                                   : 576 пикселей
Соотношение сторон                       : 16:9
Частота кадров                           : 25,000 кадров/сек
Стандарт вещания                         : Component
Цветовое пространство                    : YUV
Субдискретизация насыщенности            : 4:2:0
Битовая глубина                          : 8 бит
Тип развёртки                            : Прогрессивная
Бит/(Пиксели*Кадры)                      : 0.258
Размер потока                            : 862 Мбайт (89%)
Основные цвета                           : BT.601 PAL
Характеристики трансфера                 : BT.470 System B, BT.470 System G
Коэффициенты матрицы                     : BT.601
Аудио
Идентификатор                            : 502 (0x1F6)
Идентификатор меню                       : 1 (0x1)
Формат                                   : MPEG Audio
Версия формата                           : Version 1
Профиль формата                          : Layer 2
Идентификатор кодека                     : 3
Продолжительность                        : 44 м.
Вид битрейта                             : Постоянный
Битрейт                                  : 192 Кбит/сек
Каналы                                   : 2 канала
Частота                                  : 48,0 КГц
Метод сжатия                             : С потерями
Задержка видео                           : -40 мс.
Размер потока                            : 61,8 Мбайт (6%)
Язык                                     : Russian

Описание:
Мы посмотрим, как 1980-е сформировали наш сегодняшний мир, и начнем с персональных развлечений — игры "Пакман", аудиоплеера и видео с аэробикой.
Код:

Код: Выделить всё

Общее
Идентификатор                            : 1 (0x1)
Полное имя                               : The 80s. The Decade That Made Us [DVB_2013]\03. Старт!.ts
Формат                                   : MPEG-TS
Размер файла                             : 860 Мбайт
Продолжительность                        : 44 м.
Режим общего битрейта                    : Переменный
Общий поток                              : 2674 Кбит/сек
Видео
Идентификатор                            : 501 (0x1F5)
Идентификатор меню                       : 1 (0x1)
Формат                                   : AVC
Формат/Информация                        : Advanced Video Codec
Профиль формата                          : Main@L3.0
Параметр CABAC формата                   : Да
Параметр ReFrames формата                : 3 кадра
Идентификатор кодека                     : 27
Продолжительность                        : 44 м.
Битрейт                                  : 2348 Кбит/сек
Ширина                                   : 720 пикселей
Высота                                   : 576 пикселей
Соотношение сторон                       : 16:9
Частота кадров                           : 25,000 кадров/сек
Стандарт вещания                         : Component
Цветовое пространство                    : YUV
Субдискретизация насыщенности            : 4:2:0
Битовая глубина                          : 8 бит
Тип развёртки                            : Чересстрочная
Порядок развёртки                        : Верхнее поле первое
Бит/(Пиксели*Кадры)                      : 0.226
Размер потока                            : 755 Мбайт (88%)
Основные цвета                           : BT.601 PAL
Характеристики трансфера                 : BT.470 System B, BT.470 System G
Коэффициенты матрицы                     : BT.601
Аудио
Идентификатор                            : 502 (0x1F6)
Идентификатор меню                       : 1 (0x1)
Формат                                   : MPEG Audio
Версия формата                           : Version 1
Профиль формата                          : Layer 2
Идентификатор кодека                     : 3
Продолжительность                        : 44 м.
Вид битрейта                             : Постоянный
Битрейт                                  : 192 Кбит/сек
Каналы                                   : 2 канала
Частота                                  : 48,0 КГц
Метод сжатия                             : С потерями
Размер потока                            : 61,8 Мбайт (7%)
Язык                                     : Russian

Описание:
От кассетных плееров до компакт-дисков — узнайте, как технология начала определять не только то, что мы могли делать, но и то, кем мы были.
Код:

Код: Выделить всё

Общее
Идентификатор                            : 1 (0x1)
Полное имя                               : The 80s. The Decade That Made Us [DVB_2013]\04. Величайшие технические новинки.ts
Формат                                   : MPEG-TS
Размер файла                             : 754 Мбайт
Продолжительность                        : 44 м.
Режим общего битрейта                    : Переменный
Общий поток                              : 2343 Кбит/сек
Видео
Идентификатор                            : 501 (0x1F5)
Идентификатор меню                       : 1 (0x1)
Формат                                   : AVC
Формат/Информация                        : Advanced Video Codec
Профиль формата                          : Main@L3.0
Параметр CABAC формата                   : Да
Параметр ReFrames формата                : 3 кадра
Идентификатор кодека                     : 27
Продолжительность                        : 44 м.
Битрейт                                  : 2034 Кбит/сек
Ширина                                   : 720 пикселей
Высота                                   : 576 пикселей
Соотношение сторон                       : 16:9
Частота кадров                           : 25,000 кадров/сек
Стандарт вещания                         : Component
Цветовое пространство                    : YUV
Субдискретизация насыщенности            : 4:2:0
Битовая глубина                          : 8 бит
Тип развёртки                            : Чересстрочная
Порядок развёртки                        : Верхнее поле первое
Бит/(Пиксели*Кадры)                      : 0.196
Размер потока                            : 654 Мбайт (87%)
Основные цвета                           : BT.601 PAL
Характеристики трансфера                 : BT.470 System B, BT.470 System G
Коэффициенты матрицы                     : BT.601
Аудио
Идентификатор                            : 502 (0x1F6)
Идентификатор меню                       : 1 (0x1)
Формат                                   : MPEG Audio
Версия формата                           : Version 1
Профиль формата                          : Layer 2
Идентификатор кодека                     : 3
Продолжительность                        : 44 м.
Вид битрейта                             : Постоянный
Битрейт                                  : 192 Кбит/сек
Каналы                                   : 2 канала
Частота                                  : 48,0 КГц
Метод сжатия                             : С потерями
Размер потока                            : 61,8 Мбайт (8%)
Язык                                     : Russian

Описание:
Рассказ о важнейших событиях и явлениях 80-х, повлиявших на то, как выглядит наш мир сегодня, от Мадонны до яппи и первых сотовых телефонов.
Код:

Код: Выделить всё

Общее
Идентификатор                            : 1 (0x1)
Полное имя                               : The 80s. The Decade That Made Us [DVB_2013]\05. Шоппинг до упада.ts
Формат                                   : MPEG-TS
Размер файла                             : 763 Мбайт
Продолжительность                        : 44 м.
Режим общего битрейта                    : Переменный
Общий поток                              : 2371 Кбит/сек
Видео
Идентификатор                            : 501 (0x1F5)
Идентификатор меню                       : 1 (0x1)
Формат                                   : AVC
Формат/Информация                        : Advanced Video Codec
Профиль формата                          : Main@L3.0
Параметр CABAC формата                   : Да
Параметр ReFrames формата                : 3 кадра
Идентификатор кодека                     : 27
Продолжительность                        : 44 м.
Битрейт                                  : 2060 Кбит/сек
Ширина                                   : 720 пикселей
Высота                                   : 576 пикселей
Соотношение сторон                       : 16:9
Частота кадров                           : 25,000 кадров/сек
Стандарт вещания                         : Component
Цветовое пространство                    : YUV
Субдискретизация насыщенности            : 4:2:0
Битовая глубина                          : 8 бит
Тип развёртки                            : Чересстрочная
Порядок развёртки                        : Верхнее поле первое
Бит/(Пиксели*Кадры)                      : 0.199
Размер потока                            : 663 Мбайт (87%)
Основные цвета                           : BT.601 PAL
Характеристики трансфера                 : BT.470 System B, BT.470 System G
Коэффициенты матрицы                     : BT.601
Аудио
Идентификатор                            : 502 (0x1F6)
Идентификатор меню                       : 1 (0x1)
Формат                                   : MPEG Audio
Версия формата                           : Version 1
Профиль формата                          : Layer 2
Идентификатор кодека                     : 3
Продолжительность                        : 44 м.
Вид битрейта                             : Постоянный
Битрейт                                  : 192 Кбит/сек
Каналы                                   : 2 канала
Частота                                  : 48,0 КГц
Метод сжатия                             : С потерями
Размер потока                            : 61,8 Мбайт (8%)
Язык                                     : Russian

Описание:
От катастрофы космического корабля "Челленджер" до аварии на Чернобыльской АЭС — взгляд на самые страшные трагедии того десятилетия.
Код:

Код: Выделить всё

Общее
Идентификатор                            : 1 (0x1)
Полное имя                               : 06. Величайшие трагедии.ts
Формат                                   : MPEG-TS
Размер файла                             : 714 Мбайт
Продолжительность                        : 44 м.
Режим общего битрейта                    : Переменный
Общий поток                              : 2220 Кбит/сек
Видео
Идентификатор                            : 501 (0x1F5)
Идентификатор меню                       : 1 (0x1)
Формат                                   : AVC
Формат/Информация                        : Advanced Video Codec
Профиль формата                          : Main@L3.0
Параметр CABAC формата                   : Да
Параметр ReFrames формата                : 3 кадра
Идентификатор кодека                     : 27
Продолжительность                        : 44 м.
Битрейт                                  : 1916 Кбит/сек
Ширина                                   : 720 пикселей
Высота                                   : 576 пикселей
Соотношение сторон                       : 16:9
Частота кадров                           : 25,000 кадров/сек
Стандарт вещания                         : Component
Цветовое пространство                    : YUV
Субдискретизация насыщенности            : 4:2:0
Битовая глубина                          : 8 бит
Тип развёртки                            : Чересстрочная
Порядок развёртки                        : Верхнее поле первое
Бит/(Пиксели*Кадры)                      : 0.185
Размер потока                            : 616 Мбайт (86%)
Основные цвета                           : BT.601 PAL
Характеристики трансфера                 : BT.470 System B, BT.470 System G
Коэффициенты матрицы                     : BT.601
Аудио
Идентификатор                            : 502 (0x1F6)
Идентификатор меню                       : 1 (0x1)
Формат                                   : MPEG Audio
Версия формата                           : Version 1
Профиль формата                          : Layer 2
Идентификатор кодека                     : 3
Продолжительность                        : 44 м.
Вид битрейта                             : Постоянный
Битрейт                                  : 192 Кбит/сек
Каналы                                   : 2 канала
Частота                                  : 48,0 КГц
Метод сжатия                             : С потерями
Размер потока                            : 61,8 Мбайт (9%)
Язык                                     : Russian

Описание:
Проживите вновь величайшие моменты спорта 80-х и узнайте о наследии замечательных спортсменов, таких как Майк Тайсон и Мартина Навратилова.
Код:

Код: Выделить всё

Общее
Идентификатор                            : 1 (0x1)
Полное имя                               : The 80s. The Decade That Made Us [DVB_2013]\07. Величайшие спортсмены.ts
Формат                                   : MPEG-TS
Размер файла                             : 775 Мбайт
Продолжительность                        : 44 м.
Режим общего битрейта                    : Переменный
Общий поток                              : 2408 Кбит/сек
Видео
Идентификатор                            : 501 (0x1F5)
Идентификатор меню                       : 1 (0x1)
Формат                                   : AVC
Формат/Информация                        : Advanced Video Codec
Профиль формата                          : Main@L3.0
Параметр CABAC формата                   : Да
Параметр ReFrames формата                : 3 кадра
Идентификатор кодека                     : 27
Продолжительность                        : 44 м.
Битрейт                                  : 2095 Кбит/сек
Ширина                                   : 720 пикселей
Высота                                   : 576 пикселей
Соотношение сторон                       : 16:9
Частота кадров                           : 25,000 кадров/сек
Стандарт вещания                         : Component
Цветовое пространство                    : YUV
Субдискретизация насыщенности            : 4:2:0
Битовая глубина                          : 8 бит
Тип развёртки                            : Чересстрочная
Порядок развёртки                        : Верхнее поле первое
Бит/(Пиксели*Кадры)                      : 0.202
Размер потока                            : 674 Мбайт (87%)
Основные цвета                           : BT.601 PAL
Характеристики трансфера                 : BT.470 System B, BT.470 System G
Коэффициенты матрицы                     : BT.601
Аудио
Идентификатор                            : 502 (0x1F6)
Идентификатор меню                       : 1 (0x1)
Формат                                   : MPEG Audio
Версия формата                           : Version 1
Профиль формата                          : Layer 2
Идентификатор кодека                     : 3
Продолжительность                        : 44 м.
Вид битрейта                             : Постоянный
Битрейт                                  : 192 Кбит/сек
Каналы                                   : 2 канала
Частота                                  : 48,0 КГц
Метод сжатия                             : С потерями
Размер потока                            : 61,8 Мбайт (8%)
Язык                                     : Russian

Описание:
Хотя 1980-е и известны лозунгом «жадность — это хорошо», именно в это десятилетие были разрушены многие стены, как реальные, так и культурные.
Код:

Код: Выделить всё

Общее
Идентификатор                            : 1 (0x1)
Полное имя                               : The 80s. The Decade That Made Us [DVB_2013]\08. Снесите эти стены.ts
Формат                                   : MPEG-TS
Размер файла                             : 760 Мбайт
Продолжительность                        : 44 м.
Режим общего битрейта                    : Переменный
Общий поток                              : 2360 Кбит/сек
Видео
Идентификатор                            : 501 (0x1F5)
Идентификатор меню                       : 1 (0x1)
Формат                                   : AVC
Формат/Информация                        : Advanced Video Codec
Профиль формата                          : Main@L3.0
Параметр CABAC формата                   : Да
Параметр ReFrames формата                : 3 кадра
Идентификатор кодека                     : 27
Продолжительность                        : 44 м.
Битрейт                                  : 2050 Кбит/сек
Ширина                                   : 720 пикселей
Высота                                   : 576 пикселей
Соотношение сторон                       : 16:9
Частота кадров                           : 25,000 кадров/сек
Стандарт вещания                         : Component
Цветовое пространство                    : YUV
Субдискретизация насыщенности            : 4:2:0
Битовая глубина                          : 8 бит
Тип развёртки                            : Чересстрочная
Порядок развёртки                        : Верхнее поле первое
Бит/(Пиксели*Кадры)                      : 0.198
Размер потока                            : 660 Мбайт (87%)
Основные цвета                           : BT.601 PAL
Характеристики трансфера                 : BT.470 System B, BT.470 System G
Коэффициенты матрицы                     : BT.601
Аудио
Идентификатор                            : 502 (0x1F6)
Идентификатор меню                       : 1 (0x1)
Формат                                   : MPEG Audio
Версия формата                           : Version 1
Профиль формата                          : Layer 2
Идентификатор кодека                     : 3
Продолжительность                        : 44 м.
Вид битрейта                             : Постоянный
Битрейт                                  : 192 Кбит/сек
Каналы                                   : 2 канала
Частота                                  : 48,0 КГц
Метод сжатия                             : С потерями
Задержка видео                           : -40 мс.
Размер потока                            : 61,8 Мбайт (8%)
Язык                                     : Russian

Описание:
К концу 80-х американская поп-культура становится глобальной, способствуя падению железного занавеса, и в мире остается одна сверхдержава — США.
Код:

Код: Выделить всё

Общее
Идентификатор                            : 1 (0x1)
Полное имя                               : The 80s. The Decade That Made Us [DVB_2013]\09. Сверхдержава.ts
Формат                                   : MPEG-TS
Размер файла                             : 767 Мбайт
Продолжительность                        : 44 м.
Режим общего битрейта                    : Переменный
Общий поток                              : 2382 Кбит/сек
Видео
Идентификатор                            : 501 (0x1F5)
Идентификатор меню                       : 1 (0x1)
Формат                                   : AVC
Формат/Информация                        : Advanced Video Codec
Профиль формата                          : Main@L3.0
Параметр CABAC формата                   : Да
Параметр ReFrames формата                : 3 кадра
Идентификатор кодека                     : 27
Продолжительность                        : 44 м.
Битрейт                                  : 2070 Кбит/сек
Ширина                                   : 720 пикселей
Высота                                   : 576 пикселей
Соотношение сторон                       : 16:9
Частота кадров                           : 25,000 кадров/сек
Стандарт вещания                         : Component
Цветовое пространство                    : YUV
Субдискретизация насыщенности            : 4:2:0
Битовая глубина                          : 8 бит
Тип развёртки                            : Чересстрочная
Порядок развёртки                        : Верхнее поле первое
Бит/(Пиксели*Кадры)                      : 0.200
Размер потока                            : 666 Мбайт (87%)
Основные цвета                           : BT.601 PAL
Характеристики трансфера                 : BT.470 System B, BT.470 System G
Коэффициенты матрицы                     : BT.601
Аудио
Идентификатор                            : 502 (0x1F6)
Идентификатор меню                       : 1 (0x1)
Формат                                   : MPEG Audio
Версия формата                           : Version 1
Профиль формата                          : Layer 2
Идентификатор кодека                     : 3
Продолжительность                        : 44 м.
Вид битрейта                             : Постоянный
Битрейт                                  : 192 Кбит/сек
Каналы                                   : 2 канала
Частота                                  : 48,0 КГц
Метод сжатия                             : С потерями
Размер потока                            : 61,8 Мбайт (8%)
Язык                                     : Russian

30.06.2013 обновлена раздача. Заменена бракованная серия. Просьба перекачать торрент.
У вас нет необходимых прав для просмотра вложений в этом сообщении.