Homespun - Boogie Woogie Guitar Taught By Del Ray [2017, Гитара, DVDRip, PDF, ENG] (Видеоурок)

Гитара, бас гитара, балалайка, скрипка, виолончель и т.д.
Торрент Сидеров Личеров Размер
torrent_5496354.torrent
0 0 842.92 МБ
Аватара пользователя
Stepan
Администратор
Сообщения: 52267
Зарегистрирован: 05 ноя 2011, 20:36

Homespun - Boogie Woogie Guitar Taught By Del Ray [2017, Гитара, DVDRip, PDF, ENG] (Видеоурок)

Сообщение Stepan » 22 мар 2018, 22:29

Boogie Woogie Guitar

Страна: USA
Тематика: Гитара
Тип раздаваемого материала: Видеоурок
Продолжительность: 01:35:00
Год выпуска: 2017
Язык: Английский
Перевод: Не требуется
Качество: DVDRip
Формат: MP4
Видео кодек: AVC
Аудио кодек: AAC
Видео: AVC, 1280X720, 16:9, 900 kbps, 60 fps
Аудио: AAC, 256 kbps, 44 kHz, 2 ch
In this vintage Homespun video series, you’ll learn an array of great songs, licks and guitar arrangements from guitar wonder Del Rey. Explore thumb-and-three finger picking, cool chord work and the integration of bass lines into your playing!
Nothing in Rambling Pt. 1 - In the first video of the tutorial, Del Rey plays "Nothing in Rambling" and talks about how songs like this first influenced her style.
Nothing in Rambling Pt. 2 - In this video, Del Rey continues with the song showing how to play the melody and bass line as well as working out the solo.
Boogie Mysterioso Pt. 1 - Del Rey shows the song Boogie Myterioso and it's many parts that you can use to add to your own style.
Boogie Mysterioso Pt. 2 - Continuing with the song, more complex but useful techniques are shown.
Straw Broom Boogie Pt. 1 - Here, Del Rey introduces a new song using a capo.
Straw Broom Boogie Pt. 2 - Variations of the tune's progression is shown in this video.
On the Wall) - Del moves on to showcase techniques for another song in drop D.
Boogie Woogie Country Girl - Techniques of the final song, Boogie Woogie Country Girl, are shown tuned to open G.

Код: Выделить всё

[b]Формат                                   : MPEG-4
Профиль формата                          : Base Media
Идентификатор кодека                     : isom (isom/iso2/avc1/mp41)
Общий поток                              : 1175 Кбит/сек
Программа кодирования                    : Lavf57.71.100
[/b]Видео
Идентификатор                            : 1
Формат                                   : AVC
Формат/Информация                        : Advanced Video Codec
Профиль формата                          : Main@L4
Параметр CABAC формата                   : Да
Параметр ReFrames формата                : 4 кадра
Идентификатор кодека                     : avc1
Идентификатор кодека/Информация          : Advanced Video Coding
Битрейт                                  : 903 Кбит/сек
Ширина                                   : 1280 пикселей
Высота                                   : 720 пикселей
Соотношение сторон                       : 16:9
Режим частоты кадров                     : Переменный
Частота кадров                           : 59,940 (60000/1001) кадров/сек
Минимальная частота кадров               : 59,920 кадров/сек
Максимальная частота кадров              : 59,960 кадров/сек
Цветовое пространство                    : YUV
Субдискретизация насыщенности            : 4:2:0
Битовая глубина                          : 8 бит
Тип развёртки                            : Прогрессивная
Бит/(Пиксели*Кадры)                      : 0.016
Размер потока                            : 70,8 Мбайт (77%)
Библиотека кодирования                   : x264 core 142 r2479 dd79a61
Настройки программы                      : cabac=1 / ref=1 / deblock=1:0:0 / analyse=0x1:0x111 / me=hex / subme=2 / psy=1 / psy_rd=1.00:0.00 / mixed_ref=0 / me_range=16 / chroma_me=1 / trellis=0 / 8x8dct=0 / cqm=0 / deadzone=21,11 / fast_pskip=1 / chroma_qp_offset=0 / threads=12 / lookahead_threads=4 / sliced_threads=0 / nr=0 / decimate=1 / interlaced=0 / bluray_compat=0 / constrained_intra=0 / bframes=3 / b_pyramid=2 / b_adapt=1 / b_bias=0 / direct=1 / weightb=1 / open_gop=0 / weightp=1 / keyint=600 / keyint_min=60 / scenecut=40 / intra_refresh=0 / rc_lookahead=10 / rc=2pass / mbtree=1 / bitrate=903 / ratetol=1.0 / qcomp=0.60 / qpmin=0 / qpmax=69 / qpstep=4 / cplxblur=20.0 / qblur=0.5 / vbv_maxrate=20000 / vbv_bufsize=25000 / nal_hrd=none / filler=0 / ip_ratio=1.40 / aq=1:1.00
Цветовой диапазон                        : Limited
Основные цвета                           : BT.709
Характеристики трансфера                 : BT.709
Коэффициенты матрицы                     : BT.709
Аудио
Идентификатор                            : 2
Формат                                   : AAC
Формат/Информация                        : Advanced Audio Codec
Профиль формата                          : LC
Идентификатор кодека                     : 40
Вид битрейта                             : Постоянный
Битрейт                                  : 256 Кбит/сек
Каналы                                   : 2 канала
Расположение каналов                     : Front: L R
Частота                                  : 44,1 КГц
Частота кадров                           : 43,066 кадра/сек (1024 spf)
Метод сжатия                             : С потерями
Размер потока                            : 20,1 Мбайт (22%)
Язык                                     : English
Default                                  : Да
Alternate group                          : 1
У вас нет необходимых прав для просмотра вложений в этом сообщении.