Паранормальное. Круги на полях / Paranormal: Crop circles (Патрик Роджерс) [2013, Документальный, научно-популярный, DVB

Научно-популярные фильмы Национального географического общества
Торрент Сидеров Личеров Размер
torrent_4425035.torrent
0 0 1.04 ГБ
Аватара пользователя
Солнышко
Сообщения: 22944
Зарегистрирован: 13 янв 2016, 22:10

Паранормальное. Круги на полях / Paranormal: Crop circles (Патрик Роджерс) [2013, Документальный, научно-популярный, DVB

Сообщение Солнышко » 22 мар 2018, 22:29

Паранормальное. Круги на полях / Paranormal: Crop circles

Год выпуска: 2013
Страна: США
Жанр: Документальный, научно-популярный
Продолжительность: 00:44:59
Перевод: Одноголосый закадровый
Русские субтитры: нет
Режиссер: Патрик Роджерс
Описание: Обычно воспринимаемые как розыгрыш, загадочные круги на полях появляются в разных частях Земли. Могут ли они быть посланиями из других миров?

качество: DVB
формат: MPEG
видеокодек: MPEG2
аудиокодек: MPEG
Видео: MPEG2 Video 1024х576 (704x576) (16:9) 25fps 3 051 Kbps
Аудио: MPEG Audio 48000Hz stereo 192kbps
General
Complete name : C:\Documents and Settings\Mersicc\Мои документы\ Паранормальное. Круги на полях .mpg
Format : MPEG-PS
File size : 1.04 GiB
Duration : 44mn 59s
Overall bit rate mode : Variable
Overall bit rate : 3 309 Kbps
Writing library : encoded by TMPGEnc MPEG Editor 2.0 Version. 2.2.8.177
Video
ID : 224 (0xE0)
Format : MPEG Video
Format version : Version 2
Format profile : Main@Main
Format settings, BVOP : Yes
Format settings, Matrix : Custom
Format settings, GOP : Variable
Duration : 44mn 59s
Bit rate mode : Variable
Bit rate : 3 051 Kbps
Maximum bit rate : 15.0 Mbps
Width : 704 pixels
Height : 576 pixels
Display aspect ratio : 16:9
Frame rate : 25.000 fps
Standard : PAL
Color space : YUV
Chroma subsampling : 4:2:0
Bit depth : 8 bits
Scan type : Interlaced
Scan order : Top Field First
Compression mode : Lossy
Bits/(Pixel*Frame) : 0.301
Stream size : 982 MiB (92%)
Alignment : encoded by TMPGEnc MPEG Editor 2.0 Version. 2.2.8.177
Title : TMPGEnc MPEG Editor
Writing application : 2.2.8.177
Writing library : TMPGEnc MPEG Editor 2.2.8.177
Matrix coefficients : BT.601
Audio
ID : 192 (0xC0)
Format : MPEG Audio
Format version : Version 1
Format profile : Layer 2
Duration : 44mn 59s
Bit rate mode : Constant
Bit rate : 192 Kbps
Channel(s) : 2 channels
Sampling rate : 48.0 KHz
Compression mode : Lossy
Stream size : 61.8 MiB (6%)
У вас нет необходимых прав для просмотра вложений в этом сообщении.