Реальность или фантастика? Астронавты древности / Is it real? Ancient Astronauts (Нэнси Доннелли) [2006, документальный,

Научно-популярные фильмы Национального географического общества
Торрент Сидеров Личеров Размер
torrent_4418457.torrent
0 0 669.42 МБ
Аватара пользователя
Солнышко
Сообщения: 22944
Зарегистрирован: 13 янв 2016, 22:10

Реальность или фантастика? Астронавты древности / Is it real? Ancient Astronauts (Нэнси Доннелли) [2006, документальный,

Сообщение Солнышко » 22 мар 2018, 22:29

Реальность или фантастика? Астронавты древности / Is it real? Ancient Astronauts
Год выпуска: 2006
Страна: США
Жанр: документальный
Продолжительность: 00:46:57
Перевод: Одноголосый закадровый
Русские субтитры: нет
Режиссер: Нэнси Доннелли
Описание: Правда ли, что тысячи лет назад инопланетяне высадились на Землю и изменили развитие человека и его культуры?
Эта программа исследует свидетельства и отделяет факты от научной фантастики...
сэмпл
качество: HDTVRip
формат: MKV
видеокодек: H.264
аудиокодек: MP3
Видео: MPEG4 Video (H264) 1024x576 25fps 1 800 Kbps
Аудио: MPEG Audio 48.0 kHz, MP2, 2 channels (L,R), ~192.00 kbps avg
General
Unique ID : 251394824443210652374540367603632972857 (0xBD20E1CC734BD78795FC24480C442439)
Complete name : C:\Documents and Settings\Mersicc\Мои документы\Is.it.real.Ancient.Astronauts.2006.x264.HDTVRip.(AVC).mkv
Format : Matroska
Format version : Version 2
File size : 669 MiB
Duration : 46mn 57s
Overall bit rate : 1 993 Kbps
Encoded date : UTC 2013-03-20 14:37:23
Writing application : mkvmerge v5.8.0 ('No Sleep / Pillow') built on Sep 2 2012 15:37:04
Writing library : libebml v1.2.3 + libmatroska v1.3.0
Video
ID : 1
Format : AVC
Format/Info : Advanced Video Codec
Format profile : High@L4.1
Format settings, CABAC : Yes
Format settings, ReFrames : 5 frames
Codec ID : V_MPEG4/ISO/AVC
Duration : 46mn 57s
Bit rate : 1 800 Kbps
Width : 1 024 pixels
Height : 576 pixels
Display aspect ratio : 16:9
Frame rate mode : Constant
Frame rate : 25.000 fps
Color space : YUV
Chroma subsampling : 4:2:0
Bit depth : 8 bits
Scan type : Progressive
Bits/(Pixel*Frame) : 0.122
Stream size : 592 MiB (88%)
Writing library : x264 core 125 r2208 d9d2288
Encoding settings : cabac=1 / ref=5 / deblock=1:-2:-2 / analyse=0x3:0x111 / me=umh / subme=9 / psy=1 / psy_rd=0.00:0.10 / mixed_ref=1 / me_range=32 / chroma_me=1 / trellis=2 / 8x8dct=1 / cqm=0 / deadzone=21,11 / fast_pskip=0 / chroma_qp_offset=-1 / threads=3 / lookahead_threads=1 / sliced_threads=0 / nr=0 / decimate=1 / interlaced=0 / bluray_compat=0 / constrained_intra=0 / bframes=5 / b_pyramid=2 / b_adapt=0 / b_bias=0 / direct=1 / weightb=1 / open_gop=0 / weightp=2 / keyint=250 / keyint_min=25 / scenecut=40 / intra_refresh=0 / rc_lookahead=50 / rc=2pass / mbtree=1 / bitrate=1800 / ratetol=1.0 / qcomp=0.60 / qpmin=0 / qpmax=69 / qpstep=4 / cplxblur=20.0 / qblur=0.5 / ip_ratio=1.40 / aq=1:1.00
Default : Yes
Forced : No
Audio
ID : 2
Format : MPEG Audio
Format version : Version 1
Format profile : Layer 2
Codec ID : A_MPEG/L2
Codec ID/Hint : MP2
Duration : 46mn 57s
Bit rate mode : Constant
Bit rate : 192 Kbps
Channel(s) : 2 channels
Sampling rate : 48.0 KHz
Compression mode : Lossy
Stream size : 64.5 MiB (10%)
Language : Russian
Default : Yes
Forced : No
У вас нет необходимых прав для просмотра вложений в этом сообщении.