Nat Geo Wild. Невероятный доктор Пол: Весенний аврал [2012, Документальный, IPTVRip]

Научно-популярные фильмы Национального географического общества
Торрент Сидеров Личеров Размер
torrent_4393141.torrent
0 0 659.39 МБ
Аватара пользователя
Солнышко
Сообщения: 22944
Зарегистрирован: 13 янв 2016, 22:10

Nat Geo Wild. Невероятный доктор Пол: Весенний аврал [2012, Документальный, IPTVRip]

Сообщение Солнышко » 22 мар 2018, 22:29

Невероятный доктор Пол (4 серия из 10) Весенний аврал / Dr Pol Veterinary service
Год выпуска: 2012
Страна: США
Жанр: Документальный
Продолжительность: 00:44:58
Перевод: Одноголосый закадровый
Описание: После 31 года работы для доктора Пола и его квалифицированных коллег нет ничего такого, с чем бы они ни сталкивались. Ему почти 70, но его клиенты поражаются энергичности, с которой работает доктор Пол. С помощью своего сына Чарльза д-р Пол продолжает лечить различных животных, не важно – маленьких или больших, в его клинике или на фермах. Во втором сезоне мы путешествуем с доктором Полом по сельской местности Мичигана, чтобы понаблюдать, как ветеринар и его команда будут помогать живот...
Выпуске: Весна - самое напряженное время в ветклинике, и доктор Пол и его коллега Бренда надеются, что к ним придет работать студент-ветеринар из Айовы.
качество: IPTVRip
формат: AVI
видеокодек: XviD
аудиокодек: AC3
Видео: XviD. 720x400 / (16:9) 25.00fps 1848 Кбит/сек
Аудио: Русский, AC3, 48 kHz, 2 ch, 192 Кбит/с
Официальный сайт

Код: Выделить всё

Общее
Полное имя                               : D:\Nat Geo Wild. Невероятный доктор Пол (1 cезон (4 серия из 10) Весенний аврал_SATRip.avi
Формат                                   : AVI
Формат/Информация                        : Audio Video Interleave
Размер файла                             : 659 Мбайт
Продолжительность                        : 44 м.
Общий поток                              : 2050 Кбит/сек
Программа кодирования                    : VirtualDubMod 1.5.10.3 | www.virtualdub-fr.org || (build 2550/release)
Библиотека кодирования                   : VirtualDubMod build 2550/release
Видео
Идентификатор                            : 0
Формат                                   : MPEG-4 Visual
Профиль формата                          : Advanced Simple@L5
Параметр BVOP формата                    : 2
Параметр QPel формата                    : Нет
Параметр GMC формата                     : Без точки перехода
Параметр матрицы формата                 : Default (H.263)
Идентификатор кодека                     : XVID
Идентификатор кодека/Подсказка           : XviD
Продолжительность                        : 44 м.
Битрейт                                  : 1848 Кбит/сек
Ширина                                   : 720 пикселей
Высота                                   : 400 пикселей
Соотношение сторон                       : 16:9
Частота кадров                           : 25,000 кадров/сек
Цветовое пространство                    : YUV
Субдискретизация насыщенности            : 4:2:0
Битовая глубина                          : 8 бит
Тип развёртки                            : Прогрессивная
Метод сжатия                             : С потерями
Бит/(Пиксели*Кадры)                      : 0.257
Размер потока                            : 594 Мбайт (90%)
Библиотека кодирования                   : XviD 1.2.1 (UTC 2008-12-04)
Аудио
Идентификатор                            : 1
Формат                                   : AC-3
Формат/Информация                        : Audio Coding 3
Расширение режима                        : CM (complete main)
Параметр Endianness формата              : Big
Идентификатор кодека                     : 2000
Продолжительность                        : 44 м.
Вид битрейта                             : Постоянный
Битрейт                                  : 192 Кбит/сек
Каналы                                   : 2 канала
Расположение каналов                     : Front: L R
Частота                                  : 44,1 КГц
Битовая глубина                          : 16 бит
Метод сжатия                             : С потерями
Размер потока                            : 61,8 Мбайт (9%)
Выравнивание                             : Разделение по промежуткам
Продолжительность промежутка             : 40  мс. (1,00 видеокадр)
Время предзагрузки промежутка            : 500  мс.


У вас нет необходимых прав для просмотра вложений в этом сообщении.