Суперсооружения / Водный куб Пекина / N.G. Megastructures. Beijing Water Cube [2012, Документальный, SATRip]

Научно-популярные фильмы Национального географического общества
Торрент Сидеров Личеров Размер
torrent_4295771.torrent
0 0 495.77 МБ
Аватара пользователя
Солнышко
Сообщения: 22944
Зарегистрирован: 13 янв 2016, 22:10

Суперсооружения / Водный куб Пекина / N.G. Megastructures. Beijing Water Cube [2012, Документальный, SATRip]

Сообщение Солнышко » 22 мар 2018, 22:29

Суперсооружения / Водный куб Пекина / N.G. Megastructures. Beijing Water Cube
Год выпуска: 2012
Страна: США
Жанр: Документальный
Продолжительность: 00:47:52
Перевод: Профессиональный (одноголосый)
Описание: Ежедневно гигантские машины-монстры оживают, чтобы пожирать горы металлолома. Но что требуется для создания этих титанов индустрии? Суперсооружения - фильмы о самых больших и массивных, самых современных и новаторских, самых необычных сооружениях и технических средствах на нашей планете.

Качество: SATRip
Формат: AVI
Видео кодек: XviD
Аудио кодек: MP3
Видео: 640x432 (1.48:1), 25 fps, XviD build 47 ~1395 kbps avg, 0.20 bit/pixel
Аудио: 48 kHz, MPEG Layer 3, 1 ch, ~64.00 kbps avg

Код: Выделить всё

Общее
Полное имя                       : E:\Downloads\Суперсооружения - Megastructures\Водный куб Пекина - Beijing Water Cube.avi
Формат                           : AVI
Формат/Информация                : Audio Video Interleave
Размер файла                     : 496 Мбайт
Продолжительность                : 47 м.
Общий поток                      : 1469 Кбит/сек
Программа кодирования            : VirtualDubMod 1.5.10.2 (build 2542/release)
Библиотека кодирования           : VirtualDubMod build 2542/release
Видео
Идентификатор                    : 0
Формат                           : MPEG-4 Visual
Профиль формата                  : Advanced Simple@L5
Параметр BVOP формата            : 2
Параметр QPel формата            : Да
Параметр GMC формата             : Без точки перехода
Параметр матрицы формата         : Default (H.263)
Идентификатор кодека             : XVID
Идентификатор кодека/Подсказка   : XviD
Продолжительность                : 47 м.
Битрейт                          : 1395 Кбит/сек
Ширина                           : 640 пикс.
Высота                           : 432 пикс.
Соотношение сторон               : 3:2
Частота кадров                   : 25,000 кадр/сек
Цветовое пространство            : YUV
Подвыборка цветности             : 4:2:0
Битовая глубина                  : 8 бит
Тип развёртки                    : Прогрессивная
Метод сжатия                     : С потерями
Бит/(Пиксели*Кадры)              : 0.202
Размер потока                    : 471 Мбайт (95%)
Библиотека кодирования           : XviD 1.2.0.dev47 (UTC 2006-11-01)
Аудио
Идентификатор                    : 1
Формат                           : MPEG Audio
Версия формата                   : Version 1
Профиль формата                  : Layer 3
Идентификатор кодека             : 55
Идентификатор кодека/Подсказка   : MP3
Продолжительность                : 47 м.
Вид битрейта                     : Постоянный
Битрейт                          : 64,0 Кбит/сек
Каналы                           : 1 канал
Частота                          : 48,0 КГц
Метод сжатия                     : С потерями
Размер потока                    : 21,6 Мбайт (4%)
Выравнивание                     : Разделение по промежуткам
Продолжительность промежутка     : 40  мс. (1,00 видеокадр)
Время предзагрузки промежутка    : 500 ms
Раздача группы:
Релиз: Rizik
У вас нет необходимых прав для просмотра вложений в этом сообщении.