National Geographic: Путешествие на край Вселенной / National Geographic: Journey to the Edge of the Universe (Явар Абба

Научно-популярные фильмы Национального географического общества
Торрент Сидеров Личеров Размер
torrent_4483847.torrent
0 0 1.46 ГБ
Аватара пользователя
Солнышко
Сообщения: 22944
Зарегистрирован: 13 янв 2016, 22:10

National Geographic: Путешествие на край Вселенной / National Geographic: Journey to the Edge of the Universe (Явар Абба

Сообщение Солнышко » 22 мар 2018, 22:29

National Geographic: Путешествие на край Вселенной / National Geographic: Journey to the Edge of the Universe
Год выпуска: 2008
Страна: США
Жанр: Документальный
Продолжительность: 01:30:32
Перевод: Профессиональный (дублированный)
Русские субтитры: нет
Режиссер: Явар Аббас / Yavar Abbas
Описание: Это путешествие увлекает нас к истокам зарождения жизни, Столпам Мироздания, давая возможность заглянуть далеко за облака космической пыли, туда, где рождаются огромные звезды, даря Вселенной свой свет, а может быть и жизнь.

качество: BDRip
формат: AVI
Видео: 720x400 (1.80:1), 23.976 fps, XviD build 50, 1974 kbps avg, 0.29 bit/pixel
Аудио: 48 kHz, AC3 Dolby Digital, 3/2 (L,C,R,l,r) + LFE ch, 6 channels, 320 kbps
Video
ID : 0
Format : MPEG-4 Visual
Format profile : Advanced Simple@L5
Format settings, BVOP : Yes
Format settings, QPel : No
Format settings, GMC : No warppoints
Format settings, Matrix : Default (MPEG)
Codec ID : XVID
Codec ID/Hint : XviD
Duration : 1h 30mn
Bit rate : 1 975 Kbps
Width : 720 pixels
Height : 400 pixels
Display aspect ratio : 16:9
Original display aspect ratio : 16:9
Frame rate : 23.976 fps
Color space : YUV
Chroma subsampling : 4:2:0
Bit depth : 8 bits
Scan type : Progressive
Compression mode : Lossy
Bits/(Pixel*Frame) : 0.286
Stream size : 1.25 GiB (86%)
Writing library : XviD 1.2.1 (UTC 2008-12-04)
Audio
ID : 1
Format : AC-3
Format/Info : Audio Coding 3
Mode extension : CM (complete main)
Format settings, Endianness : Big
Codec ID : 2000
Duration : 1h 30mn
Bit rate mode : Constant
Bit rate : 320 Kbps
Channel(s) : 6 channels
Channel positions : Front: L C R, Side: L R, LFE
Sampling rate : 48.0 KHz
Bit depth : 16 bits
Compression mode : Lossy
Stream size : 207 MiB (14%)
Alignment : Split accross interleaves
Interleave, duration : 42 ms (1.00 video frame)
Interleave, preload duration : 500 ms
У вас нет необходимых прав для просмотра вложений в этом сообщении.