Frank Vignola - 50 Jazz Guitar Licks You Must Know [2011, Гитара, DVD5, ENG] (Видеоурок)

Гитара, бас гитара, балалайка, скрипка, виолончель и т.д.
Торрент Сидеров Личеров Размер
torrent_5357850.torrent
0 0 3.79 ГБ
Аватара пользователя
Stepan
Администратор
Сообщения: 52267
Зарегистрирован: 05 ноя 2011, 20:36

Frank Vignola - 50 Jazz Guitar Licks You Must Know [2011, Гитара, DVD5, ENG] (Видеоурок)

Сообщение Stepan » 22 мар 2018, 22:30

Frank Vignola - 50 Jazz Guitar Licks You Must Know
Страна: USA
Тематика: Гитара
Тип раздаваемого материала: Видеоурок
Продолжительность: 01:48:00
Год выпуска: 2011
Язык: Английский
Перевод: Отсутствует
Описание: Характерные приемы игры на джазовой гитаре.
Качество: DVD5
Формат: DVD Video
Видео кодек: MPEG2
Аудио кодек: AC3
Видео: MPEG2 720×480 (16:9) 29,970 fps 4200 kbps
Аудио: AC3, 48 KHz, 2 ch 192 kbps

Код: Выделить всё

Формат                                   : MPEG-PS
Общий поток                              : 4488 Кбит/сек
Видео
Идентификатор                            : 224 (0xE0)
Формат                                   : MPEG Video
Версия формата                           : Version 2
Профиль формата                          : Main@Main
Параметр BVOP формата                    : Да
Параметр матрицы формата                 : По умолчанию
Параметр GOP формата                     : M=3, N=15
Структура изображения                    : Frame
Битрейт                                  : 4200 Кбит/сек
Ширина                                   : 720 пикселей
Высота                                   : 480 пикселей
Соотношение сторон                       : 16:9
Частота кадров                           : 29,970 (30000/1001) кадров/сек
Стандарт вещания                         : NTSC
Цветовое пространство                    : YUV
Субдискретизация насыщенности            : 4:2:0
Битовая глубина                          : 8 бит
Тип развёртки                            : Чересстрочная
Порядок развёртки                        : Нижнее поле первое
Метод сжатия                             : С потерями
Бит/(Пиксели*Кадры)                      : 0.405
Временной код первого кадра              : 00:00:00:00
Оригинал временного кода                 : Group of pictures header
GOP, открыто/закрыто                     : Открыто
GOP, открыто/закрыто на первом кадре     : Закрыто
Размер потока                            : 50,5 Мбайт (94%)
Аудио
Идентификатор                            : 189 (0xBD)-128 (0x80)
Формат                                   : AC-3
Формат/Информация                        : Audio Coding 3
Расширение режима                        : CM (complete main)
Параметр Endianness формата              : Big
Режим смешивания                         : DVD-Video
Вид битрейта                             : Постоянный
Битрейт                                  : 192 Кбит/сек
Каналы                                   : 2 канала
Расположение каналов                     : Front: L R
Частота                                  : 48,0 КГц
Частота кадров                           : 31,250 кадров/сек (1536 spf)
Метод сжатия                             : С потерями
Размер потока                            : 2,30 Мбайт (4%)
У вас нет необходимых прав для просмотра вложений в этом сообщении.