Осушить океан. Титаник / Drain the Ocean [2015, Документальный, природа, IPTVRip]

Научно-популярные фильмы Национального географического общества
Торрент Сидеров Личеров Размер
torrent_5008891.torrent
0 0 516.52 МБ
Аватара пользователя
Солнышко
Сообщения: 22944
Зарегистрирован: 13 янв 2016, 22:10

Осушить океан. Титаник / Drain the Ocean [2015, Документальный, природа, IPTVRip]

Сообщение Солнышко » 22 мар 2018, 22:30

Осушить океан. Титаник / Drain the Ocean

Дата/Год выпуска: 2015
Страна: США, National Geographic Television, Mallinson Sad
Жанр: Документальный, природа
Продолжительность: 00:43:59
Режиссер: Криспин Сэдлер
Перевод: Профессиональный одноголосый
Описание: С помощью виртуальной визуализации мы "осушим" место крушения "Титаника", чтобы раскрыть тайны гибели корабля, считавшегося непотопляемым.
Качество: IPTVRip
Формат: AVI
Видео: XviD, 1504 Кбит/с, 704x400
Аудио: MP3, 2 ch, 128 Кбит/с

Код: Выделить всё

Общее
Полное имя                               : C:\Drain_the_Ocean.Titanic.avi
Формат                                   : AVI
Формат/Информация                        : Audio Video Interleave
Размер файла                             : 517 Мбайт
Продолжительность                        : 43 м.
Общий поток                              : 1642 Кбит/сек
Программа кодирования                    : VirtualDubMod 1.5.10.3 | www.virtualdub-fr.org || (build 2550/release)
Библиотека кодирования                   : VirtualDub build 35576/release
Видео
Идентификатор                            : 0
Формат                                   : MPEG-4 Visual
Профиль формата                          : Advanced Simple@L5
Параметр BVOP формата                    : 1
Параметр QPel формата                    : Нет
Параметр GMC формата                     : Без точки перехода
Параметр матрицы формата                 : Выборочная
Идентификатор кодека                     : XVID
Идентификатор кодека/Подсказка           : XviD
Продолжительность                        : 43 м.
Битрейт                                  : 1504 Кбит/сек
Ширина                                   : 704 пикселя
Высота                                   : 400 пикселей
Соотношение сторон                       : 16:9
Частота кадров                           : 25,000 кадров/сек
Цветовое пространство                    : YUV
Субдискретизация насыщенности            : 4:2:0
Битовая глубина                          : 8 бит
Тип развёртки                            : Прогрессивная
Метод сжатия                             : С потерями
Бит/(Пиксели*Кадры)                      : 0.214
Размер потока                            : 473 Мбайт (92%)
Библиотека кодирования                   : XviD 1.2.1 (UTC 2008-12-04)
Аудио
Идентификатор                            : 1
Формат                                   : MPEG Audio
Версия формата                           : Version 1
Профиль формата                          : Layer 3
Идентификатор кодека                     : 55
Идентификатор кодека/Подсказка           : MP3
Продолжительность                        : 43 м.
Вид битрейта                             : Постоянный
Битрейт                                  : 128 Кбит/сек
Каналы                                   : 2 канала
Частота                                  : 48,0 КГц
Метод сжатия                             : С потерями
Размер потока                            : 40,3 Мбайт (8%)
Выравнивание                             : Соединение по промежуткам
Продолжительность промежутка             : 40  мс. (1,00 видеокадр)
Время предзагрузки промежутка            : 504  мс.
У вас нет необходимых прав для просмотра вложений в этом сообщении.