National Geographic: Auto SOS / АВТО: SOS (1 Сезон,10 серий из 10) [2012, Документальный, SATRip]

Научно-популярные фильмы Национального географического общества
Торрент Сидеров Личеров Размер
torrent_4742232.torrent
0 3 7.44 ГБ
Аватара пользователя
Солнышко
Сообщения: 22944
Зарегистрирован: 13 янв 2016, 22:10

National Geographic: Auto SOS / АВТО: SOS (1 Сезон,10 серий из 10) [2012, Документальный, SATRip]

Сообщение Солнышко » 22 мар 2018, 22:31

Auto SOS / АВТО: SOS
Дата/Год выпуска: 2012
Страна: США
Режисёр: National Geographic Channel
Жанр: Документальный
Продолжительность: 10 x ~00:45:00 мин.
Перевод: Одноголосый закадровый
Русские субтитры: нет
Телеканал: National Geographic
Описание: Возьмите одну любимую, но изрядно потрепанную машину, прибавьте хозяина, нуждающегося в помощи, тайком увезите этот автомобиль в прекрасно оборудованную мастерскую, в течение трех недель сдабривайте его смазкой, краской и ноу-хау по авторемонту, а затем верните его ничего не подозревающему владельцу, приправив щедрой порцией сюрприза. Когда автомеханики Тим и Фазз, жаждущие возвращать былую славу машинам, получают очередной вызов, будьте уверены, что скоро начнется настоящее пиршество преображения старых автомобилей.нежной любви - и что Fuzz и Тим можете сделать, чтобы получить их обратно на дороге. ( Источник: NGC)
Качество: SATRip
Формат: AVI
Видео: XviD. 720x400 / (16:9) 25.00fps
Аудио: Русский AC3, 48000Hz stereo 192 Кбит/сек
Аудио 2: Английский AC3, 48000Hz stereo 192 Кбит/сек
Сэмпл
Форд-Косворт считался шикарным автомобилем, но Даррену он напоминает о семейной трагедии. Смогут ли парни вернуть ему былую славу?
Автомобиль "жук Фольксваген", или "Борис", когда-то считался классным выбором, но был оставлен ржаветь в гараже. Парни пытаются восстановить его.
Переживший Вторую мировую войну джип Дика Мастерса пострадал из-за поджога. Ребята берутся срочно восстановить его, чтобы устроить Дику сюрприз.
После аварии Джереми потерял жену и стал нетрудоспособным. Смогут ли ребята положить конец его несчастьям и восстановить его "Фиат-Спайдер"?
Все в семье Хатчингсов-Кларков ездят на фордах "Англия", кроме Джеймса, в машине которого нет двигателя. Смогут ли ребята отремонтировать её?
Из-за болезни любитель "Роверов" Стив не смог восстановить свой любимый "Р6" 1972 года. Сумеют ли ребята осуществить мечту Стива?
Тим и Фазз едут в Портсмут, надеясь спасти "Триумф Стэг" бывшего военного аквалангиста и вернуть улыбку на его лицо.
Тим и Фазз путешествуют по Великобритании в поисках автомобилей, видавших лучшие дни, и автовладельцев, нуждающихся в помощи с ремонтом их машин.
Парни едут в Норфолк, чтобы обновить старый "Форд Зодиак". Но вскоре возникает конфликт, когда Фазз возвращает ему первоначальный цвет.
Тим и Фазз путешествуют по Великобритании в поисках автомобилей, видавших лучшие дни, и автовладельцев, нуждающихся в помощи с ремонтом их машин.

Код: Выделить всё

Format : AVI
Format/Info : Audio Video Interleave
File size : 782 MiB
Duration : 44mn 59s
Overall bit rate : 2 430 Kbps
Writing application : VirtualDubMod 1.5.10.3 | www.virtualdub-fr.org || (build 2550/release)
Writing library : VirtualDubMod build 2550/release
Video
ID : 0
Format : MPEG-4 Visual
Format profile : Advanced Simple@L5
Format settings, BVOP : 2
Format settings, QPel : No
Format settings, GMC : No warppoints
Format settings, Matrix : Default (H.263)
Muxing mode : Packed bitstream
Codec ID : XVID
Codec ID/Hint : XviD
Duration : 44mn 59s
Bit rate : 2 031 Kbps
Width : 720 pixels
Height : 400 pixels
Display aspect ratio : 16:9
Frame rate : 25.000 fps
Color space : YUV
Chroma subsampling : 4:2:0
Bit depth : 8 bits
Scan type : Progressive
Compression mode : Lossy
Bits/(Pixel*Frame) : 0.282
Stream size : 654 MiB (84%)
Writing library : XviD 1.2.1 (UTC 2008-12-04)
Audio #1
ID : 1
Format : AC-3
Format/Info : Audio Coding 3
Mode extension : CM (complete main)
Format settings, Endianness : Big
Codec ID : 2000
Duration : 44mn 59s
Bit rate mode : Constant
Bit rate : 192 Kbps
Channel(s) : 2 channels
Channel positions : Front: L R
Sampling rate : 48.0 KHz
Bit depth : 16 bits
Compression mode : Lossy
Stream size : 61.8 MiB (8%)
Alignment : Split accross interleaves
Interleave, duration : 40 ms (1.00 video frame)
Interleave, preload duration : 500 ms
Audio #2
ID : 2
Format : AC-3
Format/Info : Audio Coding 3
Mode extension : CM (complete main)
Format settings, Endianness : Big
Codec ID : 2000
Duration : 44mn 59s
Bit rate mode : Constant
Bit rate : 192 Kbps
Channel(s) : 2 channels
Channel positions : Front: L R
Sampling rate : 48.0 KHz
Bit depth : 16 bits
Compression mode : Lossy
Stream size : 61.8 MiB (8%)
Alignment : Split accross interleaves
Interleave, duration : 40 ms (1.00 video frame)
Interleave, preload duration : 500 ms
У вас нет необходимых прав для просмотра вложений в этом сообщении.