NG. Осушение океана: Вторая мировая война / Drain the Ocean WWII [2016, Документальный, HDTVRip]

Научно-популярные фильмы Национального географического общества
Торрент Сидеров Личеров Размер
torrent_5336563.torrent
0 0 783.81 МБ
Аватара пользователя
Солнышко
Сообщения: 22944
Зарегистрирован: 13 янв 2016, 22:10

NG. Осушение океана: Вторая мировая война / Drain the Ocean WWII [2016, Документальный, HDTVRip]

Сообщение Солнышко » 22 мар 2018, 22:31

NG. Осушение океана: Вторая мировая война / Drain the Ocean WWII
Дата/Год выпуска: 2016
Страна: США
Жанр: Документальный
Продолжительность: 00:44:00
Перевод: Профессиональный (дублированный)
Русские субтитры: нет
Телеканал: National Geographic
Описание: Что лежит на дне океанов и морей? Вторая мировая война оставила большое количество кораблей и подводных лодок, которые покоятся на морском дне. Если бы океаны были осушены, какие тайны раскрыло бы каждое судно? С помощью новых 3D реконструкций мы увидим: линкор «Аризона» затонувший в Перл-Харборе; гибель которого потрясла Америку; нацистский суперлинкор «Бисмарк» и его останки на глубине около пяти километров; торговые суда тайно торпедированные подводными лодками возле туристических пляжей США; затонувшие в День-Д (D-Day) плавающие танки союзников. Документальный фильм покажет эти и другие корабли, такими, какими мы их никогда не видели. «Осушение океана» обнажает истину.
качество: HDTVRip
формат: AVI
Видео: 720x400 (1.80:1), 25 fps, XviD build 73 1897 kbps avg, 0.25 bit/pixel
Аудио: Русский, AC3, 48 kHz, 2 ch, 192 Кбит/с
Аудио 2: Английский, AC3, 48 kHz, 6 ch, 384 Кбит/с
Сравнение скриншотов: http://screenshotcomparison.com/comparison/195899
http://screenshotcomparison.com/comparison/195900
http://screenshotcomparison.com/comparison/195903

Код: Выделить всё

Format                      : AVI
Format/Info                 : Audio Video Interleave
File size                   : 784 MiB
Duration                    : 44 min 0 s
Overall bit rate            : 2 490 kb/s
Writing application         : VirtualDubMod 1.5.10.3 | www.virtualdub-fr.org || (build 2550/release)
Writing library             : VirtualDubMod build 2550/release
Video
ID                          : 0
Format                      : MPEG-4 Visual
Format profile              : Advanced Simple@L5
Format settings, BVOP       : 2
Format settings, QPel       : No
Format settings, GMC        : No warppoints
Format settings, Matrix     : Default (H.263)
Codec ID                    : XVID
Codec ID/Hint               : XviD
Duration                    : 44 min 0 s
Bit rate                    : 1 897 kb/s
Width                       : 720 pixels
Height                      : 400 pixels
Display aspect ratio        : 16:9
Frame rate                  : 29.970 (30000/1001) FPS
Color space                 : YUV
Chroma subsampling          : 4:2:0
Bit depth                   : 8 bits
Scan type                   : Progressive
Compression mode            : Lossy
Bits/(Pixel*Frame)          : 0.220
Stream size                 : 597 MiB (76%)
Writing library             : XviD 1.2.1 (UTC 2008-12-04)
Audio #1
ID                          : 1
Format                      : AC-3
Format/Info                 : Audio Coding 3
Mode extension              : CM (complete main)
Format settings, Endianness : Big
Codec ID                    : 2000
Duration                    : 44 min 0 s
Bit rate mode               : Constant
Bit rate                    : 192 kb/s
Channel(s)                  : 2 channels
Channel positions           : Front: L R
Sampling rate               : 48.0 kHz
Frame rate                  : 31.250 FPS (1536 spf)
Bit depth                   : 16 bits
Compression mode            : Lossy
Stream size                 : 60.4 MiB (8%)
Alignment                   : Split accross interleaves
Interleave, duration        : 33  ms (1.00 video frame)
Interleave, preload duratio : 500  ms
Audio #2
ID                          : 2
Format                      : AC-3
Format/Info                 : Audio Coding 3
Mode extension              : CM (complete main)
Format settings, Endianness : Big
Codec ID                    : 2000
Duration                    : 43 min 59 s
Bit rate mode               : Constant
Bit rate                    : 384 kb/s
Channel(s)                  : 6 channels
Channel positions           : Front: L C R, Side: L R, LFE
Sampling rate               : 48.0 kHz
Frame rate                  : 31.250 FPS (1536 spf)
Bit depth                   : 16 bits
Compression mode            : Lossy
Stream size                 : 121 MiB (15%)
Alignment                   : Split accross interleaves
Interleave, duration        : 33  ms (1.00 video frame)
Interleave, preload duratio : 500  ms
У вас нет необходимых прав для просмотра вложений в этом сообщении.