Мамонтёнок: застывший во времени (Пробуждение мамонтёнка) / Waking the Baby Mammoth (Adrienne Ciuffo) [2009, Документальный, научно-популярный, исследование, HDTVRip]

Научно-популярные фильмы Национального географического общества
Торрент Сидеров Личеров Размер
torrent_3855005.torrent
0 0 701.03 МБ
Аватара пользователя
Солнышко
Сообщения: 22944
Зарегистрирован: 13 янв 2016, 22:10

Мамонтёнок: застывший во времени (Пробуждение мамонтёнка) / Waking the Baby Mammoth (Adrienne Ciuffo) [2009, Документальный, научно-популярный, исследование, HDTVRip]

Сообщение Солнышко » 22 мар 2018, 22:32

Мамонтёнок: застывший во времени (Пробуждение мамонтёнка) / Waking the Baby Mammoth
Год выпуска: 2009
Страна: Великобритания, Woollyworks, NG Channel
Жанр: Документальный, научно-популярный, исследование
Продолжительность: 00:46:58
Перевод: Профессиональный (одноголосый)
Русские субтитры: нет
Режиссер: Adrienne Ciuffo
Описание: Мамонтёнок Люба — ископаемый мамонтёнок-самка, найденный в мае 2007 оленеводом Юрием Худи в верхнем течении реки Юрибей на полуострове Ямал. Получил имя «Люба» в честь жены оленевода. Мамонтёнок уникален тем, что по сохранности превосходит все ранее обнаруженные ископаемые останки мамонтов: тело сохранилось полностью, за исключением волосяного покрова и ногтей. Исследование останков проводил коллектив учёных из России, США, Японии и Франции: вначале для тщательного планирования вскрытия была выполнена компьютерная томография тела в токийском Университете Дзикей, затем проведено вскрытие на базе Зоологического института в Санкт-Петербурге. Учёные определили, что мамонтёнок погиб около 40 тыс. лет назад в возрасте 1 месяц. Предполагается, что после того, как мамонтёнок утонул и задохнулся в глинистой массе, произошла консервация тела под действием лактобактерий, что обеспечило сохранность в течение десятков тысяч лет в вечной мерзлоте, а затем предотвратило разложение тела и его уничтожение падальщиками в течение почти года после того, как оно было вымыто из мерзлоты течением реки (поскольку тело мамонтёнка было найдено в мае 2007, то есть до того, как вскрывается река, учёные предполагают, что оно было вынесено течением на поверхность за год до момента находки, во время половодья в июне 2006). Телеканал National Geographic Channel снял научно-популярный фильм о данной находке и исследованиях, связанных с ней.

Доп. информация: Релиз от Fандорин
О переводе:
Голос рассказчика - полный дубляж
Интервью - слышна оригинальная речь
Текст читал Пётр Тобилевич
Качество: HDTVRip
Формат: AVI
Видео кодек: XviD
Аудио кодек: AC3
Видео: 704x384 (1.83:1), 25 fps, XviD build 47 ~1884 kbps avg, 0.28 bit/pixel
Аудио: 48 kHz, AC3 Dolby Digital, 2/0 (L,R) ch, ~192 kbps
Общее
Полное имя : G:\Закачки торент\Роздачі\Mamontenok.Zastyvshij.vo.vremeni.2009.XviD.HDTVRip.avi
Формат : AVI
Формат/Информация : Audio Video Interleave
Размер файла : 701 Мбайт
Продолжительность : 46 м.
Общий поток : 2087 Кбит/сек
Программа кодирования : VirtualDubMod 1.5.10.2 (build 2540/release)
Библиотека кодирования : VirtualDubMod build 2540/release
Видео
Идентификатор : 0
Формат : MPEG-4 Visual
Профиль формата : Advanced Simple@L5
Параметр BVOP формата : 2
Параметр QPel формата : Нет
Параметр GMC формата : Без точки перехода
Параметр матрицы формата : Default (H.263)
Идентификатор кодека : XVID
Идентификатор кодека/Подсказка : XviD
Продолжительность : 46 м.
Битрейт : 1885 Кбит/сек
Ширина : 704 пикселя
Высота : 384 пикселя
Соотношение сторон : 16:9
Частота кадров : 25,000 кадров/сек
Цветовое пространство : YUV
Субдискретизация насыщенности : 4:2:0
Битовая глубина : 8 бит
Тип развёртки : Прогрессивная
Метод сжатия : С потерями
Бит/(Пиксели*Кадры) : 0.279
Размер потока : 633 Мбайт (90%)
Библиотека кодирования : XviD 1.2.0.dev47 (UTC 2006-11-01)
Аудио
Идентификатор : 1
Формат : AC-3
Формат/Информация : Audio Coding 3
Расширение режима : CM (complete main)
Идентификатор кодека : 2000
Продолжительность : 46 м.
Вид битрейта : Постоянный
Битрейт : 192 Кбит/сек
Каналы : 2 канала
Расположение каналов : Front: L R
Частота : 48,0 КГц
Битовая глубина : 16 бит
Метод сжатия : С потерями
Размер потока : 64,5 Мбайт (9%)
Выравнивание : Разделение по промежуткам
Продолжительность промежутка : 40 мс. (1,00 видеокадр)
Время предзагрузки промежутка : 500 мс.
После закачки остаёмся на раздаче!!!
У вас нет необходимых прав для просмотра вложений в этом сообщении.