Паранормальное / Paranormal (10 эпизодов) (Патрик Роджерс, Пит Косте, Патрик Роджерс) [2010 / 2012, Документальный, научно-познавательный, IPTVRip / SATRip] National Geographic

Научно-популярные фильмы Национального географического общества
Торрент Сидеров Личеров Размер
torrent_4436993.torrent
0 0 5.88 ГБ
Аватара пользователя
Солнышко
Сообщения: 22944
Зарегистрирован: 13 янв 2016, 22:10

Паранормальное / Paranormal (10 эпизодов) (Патрик Роджерс, Пит Косте, Патрик Роджерс) [2010 / 2012, Документальный, научно-познавательный, IPTVRip / SATRip] National Geographic

Сообщение Солнышко » 22 мар 2018, 22:33

Паранормальное / Paranormal
Производство:
Год выпуска: 2010 / 2012
Страна: США
Выпущено: NGC Network International LCC, National Geographic Channels
Жанр: Документальный, научно-познавательный
Продолжительность: 10 х ~ 00:45:00
Перевод: Одноголосый закадровый
Текст читал: Игорь Тарадайкин
Озвучено: АРК-ТВ
Русские субтитры: нет
Режиссер: Патрик Роджерс, Пит Косте, Патрик Роджерс
Описание: Могут ли на самом деле экстрасенсы помогать в расследованиях полиции? Скептикам требуются какие-то подтверждения существования такой способности...
[url=http:// СПАМ [/url]
качество: IPTVRip / SATRip
формат: AVI
видеокодек: XviD
аудиокодек: MP3
Видео: MPEG-4 Visual, XviD, 720 х 400, 704 х 400, 640 х 368 (16:9), 25,000 кадров/сек, 1800 Кбит/сек, 0.249 бит/пиксель
Аудио: MP3, 48,0 КГц, 192 / 128 Кбит/сек, 2 канала
Авторы рипов vsobbol, shibay9
1. Апокалипсис животных
2. Бермудский треугольник
3. Встреча с пришельцами
4. Жизнь после жизни
5. Круги на полях
6. Морские чудовища
7. Призраки
8. Экстрасенсорные способности
9. Чупакабра
10. Кровавый дождь и космическое желе
Общее
Полное имя : D:\torrent\Паранормальное. Экстрасенсорные способности (2012).avi
Формат : AVI
Формат/Информация : Audio Video Interleave
Размер файла : 642 Мбайт
Продолжительность : 44 м.
Общий поток : 1996 Кбит/сек
Программа кодирования : VirtualDubMod 1.5.10.3 | www.virtualdub-fr.org || (build 2550/release)
Библиотека кодирования : VirtualDubMod build 2550/release
Видео
Идентификатор : 0
Формат : MPEG-4 Visual
Профиль формата : Advanced Simple@L5
Параметр BVOP формата : 1
Параметр QPel формата : Нет
Параметр GMC формата : Без точки перехода
Параметр матрицы формата : Default (H.263)
Идентификатор кодека : XVID
Идентификатор кодека/Подсказка : XviD
Продолжительность : 44 м.
Битрейт : 1794 Кбит/сек
Ширина : 720 пикселей
Высота : 400 пикселей
Соотношение сторон : 16:9
Частота кадров : 25,000 кадров/сек
Цветовое пространство : YUV
Субдискретизация насыщенности : 4:2:0
Битовая глубина : 8 бит
Тип развёртки : Прогрессивная
Метод сжатия : С потерями
Бит/(Пиксели*Кадры) : 0.249
Размер потока : 577 Мбайт (90%)
Библиотека кодирования : XviD 1.2.1 (UTC 2008-12-04)
Аудио
Идентификатор : 1
Формат : MPEG Audio
Версия формата : Version 1
Профиль формата : Layer 3
Идентификатор кодека : 55
Идентификатор кодека/Подсказка : MP3
Продолжительность : 44 м.
Вид битрейта : Постоянный
Битрейт : 192 Кбит/сек
Каналы : 2 канала
Частота : 48,0 КГц
Метод сжатия : С потерями
Размер потока : 61,8 Мбайт (10%)
Выравнивание : Соединение по промежуткам
Продолжительность промежутка : 40 мс. (1,00 видеокадр)
Время предзагрузки промежутка : 504 мс.
Библиотека кодирования : LAME3.99r
Настройки программы : -m s -V 4 -q 2 -lowpass 18.6 -b 192
У вас нет необходимых прав для просмотра вложений в этом сообщении.