Тайные истории НЛО / Secret history of UFO's (Роберт Шиффер) [2012, Паранормальный, мистика, исследование, НЛО, IPTVRip]

Научно-популярные фильмы Национального географического общества
Торрент Сидеров Личеров Размер
torrent_4455260.torrent
0 0 644.69 МБ
Аватара пользователя
Солнышко
Сообщения: 22944
Зарегистрирован: 13 янв 2016, 22:10

Тайные истории НЛО / Secret history of UFO's (Роберт Шиффер) [2012, Паранормальный, мистика, исследование, НЛО, IPTVRip]

Сообщение Солнышко » 22 мар 2018, 22:33

Тайные истории НЛО / Secret history of UFO's

Год выпуска: 2012
Страна: США
Жанр: Паранормальный, мистика, исследование, НЛО
Продолжительность: 00:44:59
Перевод: Одноголосый закадровый
Русские субтитры: нет
Режиссер: Роберт Шиффер
Описание: Инопланетяне или неизвестное природное явление? Мы исследуем тайные истории НЛО, проанализируем интересные факты и послушаем специалистов.
семпл
качество: IPTVRip
формат: AVI
Видео: 720x400 (16:9), 25 fps, XviD MPEG-4 ~1800 kbps avg, 0.27 bit/pixel
Аудио: 48 kHz, MPEG Layer 3, 2 ch, ~192.00 kbps avg
General
Complete name : C:\Documents and Settings\Mersicc\Мои документы\Мои видеозаписи\Taynye.istorii.NLO.2012.XviD.IPTVRip.avi
Format : AVI
Format/Info : Audio Video Interleave
File size : 645 MiB
Duration : 44mn 59s
Overall bit rate : 2 003 Kbps
Writing application : VirtualDubMod 1.5.10.3 | www.virtualdub-fr.org || (build 2550/release)
Writing library : VirtualDubMod build 2550/release
Video
ID : 0
Format : MPEG-4 Visual
Format profile : Advanced Simple@L5
Format settings, BVOP : 1
Format settings, QPel : No
Format settings, GMC : No warppoints
Format settings, Matrix : Default (H.263)
Codec ID : XVID
Codec ID/Hint : XviD
Duration : 44mn 59s
Bit rate : 1 802 Kbps
Width : 720 pixels
Height : 400 pixels
Display aspect ratio : 16:9
Frame rate : 25.000 fps
Color space : YUV
Chroma subsampling : 4:2:0
Bit depth : 8 bits
Scan type : Progressive
Compression mode : Lossy
Bits/(Pixel*Frame) : 0.250
Stream size : 580 MiB (90%)
Writing library : XviD 1.2.1 (UTC 2008-12-04)
Audio
ID : 1
Format : MPEG Audio
Format version : Version 1
Format profile : Layer 3
Codec ID : 55
Codec ID/Hint : MP3
Duration : 44mn 58s
Bit rate mode : Constant
Bit rate : 192 Kbps
Channel(s) : 2 channels
Sampling rate : 48.0 KHz
Compression mode : Lossy
Stream size : 61.8 MiB (10%)
Alignment : Aligned on interleaves
Interleave, duration : 40 ms (1.00 video frame)
Interleave, preload duration : 504 ms
Writing library : LAME3.99r
Encoding settings : -m s -V 4 -q 2 -lowpass 18.6 -b 192
У вас нет необходимых прав для просмотра вложений в этом сообщении.