Спасти планету / Before the Flood (Фишер Стивенс / Fisher Stevens) [2016, США, документальный, новости, научно-познавате

Научно-популярные фильмы Национального географического общества
Торрент Сидеров Личеров Размер
torrent_5312265.torrent
0 0 1.35 ГБ
Аватара пользователя
Солнышко
Сообщения: 22944
Зарегистрирован: 13 янв 2016, 22:10

Спасти планету / Before the Flood (Фишер Стивенс / Fisher Stevens) [2016, США, документальный, новости, научно-познавате

Сообщение Солнышко » 22 мар 2018, 22:34

Спасти планету / Before the Flood
«The Science is Clear. The Future is Not»
Страна: США
Студия: Appian Way, Insurgent Docs, RatPac Documentary Films
Жанр: документальный, новости, научно-познавательный
Год выпуска: 2016
Продолжительность: 01:35:34
Перевод: Профессиональный (одноголосый, Олег Федоров, студия Велес)
Канал:
Субтитры: нет
Оригинальная аудиодорожка: нет
Режиссер: Фишер Стивенс / Fisher Stevens
В ролях: Илон Маск, Пан Ги Мун, Леонардо ДиКаприо, Джон Керри, Скотт Эндрю Робертсон
Описание: Леонардо ДиКаприо, новый посол Мира ООН по проблемам климата, берется за главную роль в своей жизни. Путешествуя от пустошей Гренландии к лесам Суматры и залам Ватикана, ДиКаприо изучает влияние климатических изменений на нашу планету. Он пользуется своими привилегиями, чтобы побеседовать с активистами, учеными и сильными мира сего, включая Барака Обаму, Илона Маска и Папу Франциска. Изучая проблему со всех сторон, Лео ищет ответ на вопрос: что мы можем сделать, пока не стало слишком поздно?

Тип релиза: Rip [Neon_project]
Контейнер: AVI
Видео: 704x400 (1.76:1), 25 fps, XviD build 50 ~1815 kbps avg, 0.26 bit/pixel
Аудио: 48 kHz, AC3 Dolby Digital, 2 ch, ~192.00 kbps avg

возраст: зрителям, достигшим 12 лет
рейтинг MPAA: рекомендуется присутствие родителей

Код: Выделить всё

Общее
Полное имя                               : \Before.the.Flood.2016.HDTVRip.Rus.avi
Формат                                   : AVI
Формат/Информация                        : Audio Video Interleave
Размер файла                             : 1,35 Гбайт
Продолжительность                        : 1 ч. 35 м.
Общий поток                              : 2017 Кбит/сек
Название фильма                          : Спасти планету / Before the Flood
Жанр                                     : Documentary
Программа кодирования                    : VirtualDubMod 1.5.10.3 | www.virtualdub-fr.org || (build 2550/release)
Примечание                               : Neon_project
Видео
Идентификатор                            : 0
Формат                                   : MPEG-4 Visual
Профиль формата                          : Advanced Simple@L5
Параметр BVOP формата                    : 1
Параметр QPel формата                    : Нет
Параметр GMC формата                     : Без точки перехода
Параметр матрицы формата                 : Выборочная
Идентификатор кодека                     : XVID
Идентификатор кодека/Подсказка           : XviD
Продолжительность                        : 1 ч. 35 м.
Битрейт                                  : 1816 Кбит/сек
Ширина                                   : 704 пикселя
Высота                                   : 400 пикселей
Соотношение сторон                       : 16:9
Частота кадров                           : 25,000 кадров/сек
Цветовое пространство                    : YUV
Субдискретизация насыщенности            : 4:2:0
Битовая глубина                          : 8 бит
Тип развёртки                            : Прогрессивная
Метод сжатия                             : С потерями
Бит/(Пиксели*Кадры)                      : 0.258
Размер потока                            : 1,21 Гбайт (90%)
Библиотека кодирования                   : XviD 1.2.1 (UTC 2008-12-04)
Аудио
Идентификатор                            : 1
Формат                                   : AC-3
Формат/Информация                        : Audio Coding 3
Расширение режима                        : CM (complete main)
Параметр Endianness формата              : Big
Идентификатор кодека                     : 2000
Продолжительность                        : 1 ч. 35 м.
Вид битрейта                             : Постоянный
Битрейт                                  : 192 Кбит/сек
Каналы                                   : 2 канала
Расположение каналов                     : Front: L R
Частота                                  : 48,0 КГц
Битовая глубина                          : 16 бит
Метод сжатия                             : С потерями
Размер потока                            : 131 Мбайт (10%)
Выравнивание                             : Разделение по промежуткам
Продолжительность промежутка             : 40  мс. (1,00 видеокадр)
Время предзагрузки промежутка            : 500  мс.

У вас нет необходимых прав для просмотра вложений в этом сообщении.