National Geographic. Истории о Боге с Морганом Фриманом (Сезон 2, 3 серии из 3) / The Story of God with Morgan Freeman (

Научно-популярные фильмы Национального географического общества
Торрент Сидеров Личеров Размер
torrent_5389902.torrent
0 0 2.2 ГБ
Аватара пользователя
Солнышко
Сообщения: 22944
Зарегистрирован: 13 янв 2016, 22:10

National Geographic. Истории о Боге с Морганом Фриманом (Сезон 2, 3 серии из 3) / The Story of God with Morgan Freeman (

Сообщение Солнышко » 22 мар 2018, 22:34

National Geographic. Истории о Боге с Морганом Фриманом (Сезон 2, 3 серии из 3) / The Story of God with Morgan Freeman
Дата/Год выпуска: 2017
Страна: США, Revelations Entertainment for National Geographic Cannales
Жанр: Документальный, религия, история
Продолжительность: 3 x ~ 00:50:00
Перевод: Студийный (одноголосый закадровый)
Доп. инфо о переводе: студия «Велес»
Режиссер: Тим Метзгер / Tim Metzger
Телеканал: National Geographic
Описание: Земное и божественное - две этих сущности с самого рождения человечества не дают нам покоя. С чего все началось? Есть ли кто-то, знающий обо всем больше нас? Как нам найти смысл жизни и гармонию? Морган Фриман, известный актер и мудрый человек, ищет свои собственные ответы на извечные вопросы в новом проекте канала National Geographic. 6 захватывающих серий отправят нас в удивительные места нашей планеты - от Каира до Гёбекли-Темпе, от Стоунхеджа до Варанаси. Вместе с автором программы мы окажемся и в пирамидах Египта, полных мистики, и в научных лабораториях с нейрологами и космологами, относящимися к религии, как к науке . 60 минут каждой серии наполнены не только сакральными знаниями, но и великолепными визуальными эффектами, и стилизованными сценами, максимально погружающими нас в атмосферу происходящего.
Доп. информация: Авторство релиза - alf62

качество: HDTVRip
формат: AVI
Видео: 720x400 (1.80:1), 29.970 fps, XviD build 73 ~1899 kbps avg, 0.22 bit/pixel
Аудио: 48 kHz, AC3 Dolby Digital, 2/0 (L,R) ch, ~192.00 kbps avg
1. Избранный / The Chosen One
Морган выбирает нескольких религиозных лидеров, чтобы ответить на вопрос - по каким признакам их делают избранными? И какую роль они играют в их вероучении?
2. Рай и Ад / Heaven and Hell
Морган исследует те способы, которыми люди на земле устраивают рай и ад в своей жизни. Он участвует в обрядах заклинания бесов в Эфиопии, открывает тайны человеческих жертвоприношений у древнего народа Майя, беседует с женщиной, которая сама испытала ощущение попадания в рай после того, как побывала на пороге смерти.
3. Доказательства существования Бога / Proof of God
Верят ли еще в Бога в современном мире? Или все-таки есть моменты, когда его существование является бесспорным? Морган отправляется в путь, чтобы пройти захватывающий квест и найти тех людей, которые убеждены в том, что у них есть доказательства присутствия Бога в их жизни.

Код: Выделить всё

Истории.о.Боге.(2.сезон.1.серия).Избранный.2017.XviD.HDTVRip.alf62.avi
Формат                                   : AVI
Формат/Информация                        : Audio Video Interleave
Размер файла                             : 752 Мбайт
Продолжительность                        : 49 м.
Общий поток                              : 2103 Кбит/сек
Программа кодирования                    : VirtualDubModRus 1.5.10.2 (build 2542/release)
Библиотека кодирования                   : VirtualDubMod build 2542/release
Видео
Идентификатор                            : 0
Формат                                   : MPEG-4 Visual
Профиль формата                          : Advanced Simple@L5
Параметр BVOP формата                    : 2
Параметр QPel формата                    : Нет
Параметр GMC формата                     : Без точки перехода
Параметр матрицы формата                 : Default (MPEG)
Идентификатор кодека                     : XVID
Идентификатор кодека/Подсказка           : XviD
Продолжительность                        : 49 м.
Битрейт                                  : 1899 Кбит/сек
Ширина                                   : 720 пикселей
Высота                                   : 400 пикселей
Соотношение сторон                       : 16:9
Частота кадров                           : 29,970 кадров/сек
Цветовое пространство                    : YUV
Субдискретизация насыщенности            : 4:2:0
Битовая глубина                          : 8 бит
Тип развёртки                            : Прогрессивная
Метод сжатия                             : С потерями
Бит/(Пиксели*Кадры)                      : 0.220
Размер потока                            : 679 Мбайт (90%)
Библиотека кодирования                   : XviD 73
Аудио
Идентификатор                            : 1
Формат                                   : AC-3
Формат/Информация                        : Audio Coding 3
Расширение режима                        : CM (complete main)
Параметр Endianness формата              : Big
Идентификатор кодека                     : 2000
Продолжительность                        : 49 м.
Вид битрейта                             : Постоянный
Битрейт                                  : 192 Кбит/сек
Каналы                                   : 2 канала
Расположение каналов                     : Front: L R
Частота                                  : 48,0 КГц
Битовая глубина                          : 16 бит
Метод сжатия                             : С потерями
Задержка видео                           : 260 мс.
Размер потока                            : 68,6 Мбайт (9%)
Выравнивание                             : Разделение по промежуткам
Продолжительность промежутка             : 33  мс. (1,00 видеокадр)
Время предзагрузки промежутка            : 500  мс.
Внимание! Раздача ведётся путём добавления новых серий
Внимание! Раздача ведётся путём добавления новых серий; при каждом добавлении создаётся новый торрент. Чтобы начать докачку новой серии, пользователям необходимо сделать следующее:
• Остановить скачивание.
• Удалить старый торрент у себя из клиента (старые серии удалять не надо).
• Скачать новый торрент и запустить его у себя в клиенте вместо старого, при этом указать клиенту путь в старую папку куда и должно происходить скачивание новых серий.
Ваш клиент при этом должен произвести хеширование (проверку) старой папки (если не производит сам - помогите ему сделать это), и будет докачивать только те серии которых у вас ещё нет. Старые серии при этом не удаляются, а продолжают раздаваться!
Eсли вы уже удалили старые серии, то предотвратить повторную закачку старых серий можно, отжав галочку в соответсвующих местах при запуске нового торрента. По возможности, желательно не удалять старые серии как можно дольше чтобы релизёр не столько продолжал раздавать старые серии, а смог сконцентрироваться на новых.

У вас нет необходимых прав для просмотра вложений в этом сообщении.