Alfred's Artist Series - Allan Holdsworth [2007(1992), Обучающее видео, гитарная техника, теория, импровизация DVD5, ENG

Гитара, бас гитара, балалайка, скрипка, виолончель и т.д.
Торрент Сидеров Личеров Размер
torrent_3423891.torrent
0 0 3.7 ГБ
Аватара пользователя
Stepan
Администратор
Сообщения: 52270
Зарегистрирован: 05 ноя 2011, 20:36

Alfred's Artist Series - Allan Holdsworth [2007(1992), Обучающее видео, гитарная техника, теория, импровизация DVD5, ENG

Сообщение Stepan » 22 мар 2018, 22:34

Alfred's Artist Series - Allan Holdsworth
Страна: USA
Тематика: Обучающее видео, гитарная техника, теория, импровизация
Тип раздаваемого материала: Видеоурок
Продолжительность: 01:12:26
Год выпуска: 2007(1992)
Язык: Английский
Перевод: Субтитры
Язык субтитров: Японские отключаемые
Home: www.therealallanholdsworth.com
Описание: Allan Holdsworth (Аллан Холдсуорт) один из самых уважаемых гитаристов в мире, стал известен миру музыки за свою сложность и импровизацию в работе с джазовыми, классическими, блюзовыми мотивами, он уникален своим умением раскрываться в импровизации. Некоторые критики сравнивали его творчество с Листом. Его игра уникальна, подход к мысленному планированию близок к математическим расчетам. Он оказала влияние на многих гитаристов, в том числе и на таких легендарных личностей, как Frank Zappa, Eddie Van Halen, Yngwie Malmsteen, Alex Lifeson и Steve Vai.
Играя в живую со своей командой Allan Holdsworth продемонстрирует потрясающую технику игры, параллельно обучая Вас. Команда Allan Holdsworth состоит из следующих музыкантов: Steve Hunt, Skuli Sverrisson и Chad Wackerman.
В этом видео Allan Holdsworth расскажет Вам о различных вариантах гитарной техники, покажет свои гаммы и аккорды, легатную технику и изложит свои взгляды на импровизацию и процесс обучения, о том как можно творить свою музыку! Это видео до "краёв" наполнено нужной и важной обучающей информацией и, идеально подходит для активно-развивающихся гитаристов.
Allan Holdsworth ввёл восьми голосовую поддержку для создания звука фортепиано от простой электрической гитары.
Его техника легато с лёгким ощипыванием струн заставляет гитару производить пронзительный тон, подобный кларнету. В своей инновационной технике, он использует педаль громкости, и создаётся некая задержка/реверберация, что производит эффект звучания оркестровой секции. Все эти методы Аллан Холдсуорт использует для создания слуховой иллюзии классических инструментов.
Аллан записывался и выступал вместе с такими музыкантами, и группами как Jon Hiseman, Soft Machine, Tony Williams, U.K., GONG, Bill Bruford, Jean-Luc Ponty, Jack Bruce, Gordon Beck, K2, Derek Sherinian, Gongzilla Chad Wackerman, Planet X, Gary Willis, Carl Verheyen, Stanley Clarke, David Hines, Riptyde и многими другими...
В комплекте буклет и коврик

As one of the most unique and respected guitarists in the world, Allan Holdsworth has influenced countless others, including legendary artists like Frank Zappa, Eddie Van Halen, Yngwie Malmsteen, Alex Lifeson and Steve Vai. In this one-of-a-kind DVD, Allan performs seven electrifying tunes with his band, which features keyboardist Steve Hunt, bassist Skuli Sverrisson, and drummer Chad Wackerman. Allan breaks down his creative use of scales and chord voicings in this video, and offers insightful suggestions as to how to go about creating your own unique sounds and chord voicings based on his simple, yet revolutionary, concept for harmonizing scales in intervals other than traditional 3rds. See incredible close-up shots of Allan s amazing technique here, and enjoy the unique opportunity to learn from one of the all-time greats!
Allan Holdsworth: Guitar
Steve Hunt: Keyboards
Skulli Sverissen: Bass
Chad Wackerman: Drums
Качество : DVD5
Формат: DVD video
Видео кодек: MPEG2
Аудио кодек: AC3
Видео: | 720x480 | VOB | ~7700 kbps | NTSC 29.970 fps | Aspect ratio: 4:3 |
Аудио: | AC3 | 2 channels | CBR 192 Kbps | 48.0 KHz |
AH - Alfred's Artist Series\VIDEO_TS\VTS_04_1.VOB
Format : MPEG-PS
File size : 1 024 MiB
Duration : 22mn 45s
Overall bit rate : 6 289 Kbps
Video #224
ID : 224 (0xE0)
Format : MPEG Video
Format version : Version 2
Format profile : Main@Main
Format settings, Matrix : Default
Duration : 22mn 45s
Bit rate mode : Variable
Bit rate : 5 847 Kbps
Nominal bit rate : 7 700 Kbps
Width : 720 pixels
Height : 480 pixels
Display aspect ratio : 4:3
Frame rate : 29.970 fps
Standard : NTSC
Colorimetry : 4:2:0
Scan type : Interlaced
Scan order : Bottom Field First
Bits/(Pixel*Frame) : 0.565
Stream size : 952 MiB (93%)
Audio #128
ID : 128 (0x80)
Format : AC-3
Format/Info : Audio Coding 3
Duration : 22mn 45s
Bit rate mode : Constant
Bit rate : 192 Kbps
Channel(s) : 2 channels
Channel positions : L R
Sampling rate : 48.0 KHz
Stream size : 31.3 MiB (3%)
Text #32
ID : 32 (0x20)
Format : RLE
Format/Info : Run-length encoding
Video delay : 1s 68ms
У вас нет необходимых прав для просмотра вложений в этом сообщении.