[Lick Library] Absolute Beginner - Jazz Lead Guitar [2015, H.264, DVDRip, ENG] (Видеоурок)

Гитара, бас гитара, балалайка, скрипка, виолончель и т.д.
Торрент Сидеров Личеров Размер
torrent_5030388.torrent
0 0 1.16 ГБ
Аватара пользователя
Stepan
Администратор
Сообщения: 52270
Зарегистрирован: 05 ноя 2011, 20:36

[Lick Library] Absolute Beginner - Jazz Lead Guitar [2015, H.264, DVDRip, ENG] (Видеоурок)

Сообщение Stepan » 23 мар 2018, 21:27

Absolute Beginner - Jazz Lead Guitar
Страна: USA
Производитель: Lick Library
Тип раздаваемого материала: Видеоурок
Сайт производителя: licklibrary.com/store/tom-quayle/56466/absolute-beginner-jazz-lead-guitar
Автор: Tom Quayle
Продолжительность: 01:05:45
Год выпуска: 2015
Язык: Английский
Перевод: Отсутствует
Описание: В этот превосходный DVD Tom Quayle учит всех вас Essentials для начать путешествие в джаз-привести к музыки. Включает уроки, язычок и замятия бумаги контакты, Tom принимает наиболее важные аспекты этого стиля и ломает их вниз, в простые шаги, вы с нуля для поворота героя в короткий период времени
In this superb DVD Tom Quayle teaches you all of the essentials required to begin your journey with Jazz Lead guitar playing. Includes lessons, TAB and jam tracks, Tom takes the most important aspects of this style and breaks them down into easy to follow steps that take you from zero to swing hero in a short period of time.
You’ll learn techniques such as scales, arpeggios and chord tone playing, swing time feel, fretboard visualisation, playing over changes, intervals, major and minor II-V-I’s and a fantastic professional backing track to practice your new skills with. Start your jazz journey the right way with this fantastic course.

Качество: DVDRip
Формат: MP4
Видео кодек: H.264
Аудио кодек: AAC
Видео: AVC, 1920x1080, 16:9, 25.000 fps, ~ 1500 Kbps
Аудио: AAC, 48.0 KHz, ~ 125.0 Kbps, 2 channels
Format : MPEG-4
Format profile : Base Media
Codec ID : isom
File size : 11.2 MiB
Duration : 58s 432ms
Overall bit rate mode : Variable
Overall bit rate : 1 611 Kbps
Encoded date : UTC 2014-10-29 14:02:36
Tagged date : UTC 2014-10-29 14:02:36
Video
ID : 1
Format : AVC
Format/Info : Advanced Video Codec
Format profile : High@L4.0
Format settings, CABAC : Yes
Format settings, ReFrames : 4 frames
Codec ID : avc1
Codec ID/Info : Advanced Video Coding
Duration : 58s 160ms
Bit rate : 1 500 Kbps
Maximum bit rate : 6 340 Kbps
Width : 1 920 pixels
Height : 1 080 pixels
Display aspect ratio : 16:9
Frame rate mode : Constant
Frame rate : 25.000 fps
Color space : YUV
Chroma subsampling : 4:2:0
Bit depth : 8 bits
Scan type : Progressive
Bits/(Pixel*Frame) : 0.029
Stream size : 10.3 MiB (92%)
Writing library : x264 core 142 r2479kMod dd79a61
Encoded date : UTC 2014-10-29 14:02:36
Tagged date : UTC 2014-10-29 14:02:36
Audio
ID : 2
Format : AAC
Format/Info : Advanced Audio Codec
Format profile : LC
Codec ID : 40
Duration : 58s 432ms
Bit rate mode : Variable
Bit rate : 125 Kbps
Maximum bit rate : 135 Kbps
Channel(s) : 2 channels
Channel positions : Front: L R
Sampling rate : 48.0 KHz
Compression mode : Lossy
Stream size : 890 KiB (8%)
Encoded date : UTC 2014-10-29 14:01:42
Tagged date : UTC 2014-10-29 14:02:36
У вас нет необходимых прав для просмотра вложений в этом сообщении.