[Lick Library] Lead Guitar Harmonies DVD [2015, H.264, DVDRip, ENG] (Видеоурок)

Гитара, бас гитара, балалайка, скрипка, виолончель и т.д.
Торрент Сидеров Личеров Размер
torrent_5030394.torrent
0 0 794.06 МБ
Аватара пользователя
Stepan
Администратор
Сообщения: 52269
Зарегистрирован: 05 ноя 2011, 20:36

[Lick Library] Lead Guitar Harmonies DVD [2015, H.264, DVDRip, ENG] (Видеоурок)

Сообщение Stepan » 23 мар 2018, 21:27

Lead Guitar Harmonies DVD
Страна: USA
Производитель: Lick Library
Тип раздаваемого материала: Видеоурок
Сайт производителя: http://www.licklibrary.com/store/danny- ... monies-dvd
Автор: Danny Gill
Продолжительность: 02:34:03
Год выпуска: 2015
Язык: Английский
Перевод: Отсутствует
Описание: В этом отличном DVD, Дэнни Джилл выглядит в два, и даже тройной, guitar экспериментирует в стиле полосы как Thin Lizzy, хэви, Racer X и более.
Рассматривая как теории, так и приложения, вы будете охватывать звук обучилась 3RDS, 4ths, 5ths и т.д. наряду с обучения состоит из единиц на 3 гитар вы можете увидеть, как они могут работать в реальном мире, так и написания собственных гармоний.
Мы более чем воспроизведение гармонии гитары с другом, или записи деталей самостоятельно, но этого курса вы узнаете все, что нужно знать для игры на следующий уровень.
In this excellent DVD, Danny Gill looks into dual, and even triple, guitar harmonies in the style of bands like Thin Lizzy, Iron Maiden, Racer X and more.
Looking at both theory and application, you'll cover the sound of diatonic 3rds, 4ths, 5ths, etc along with learning composed pieces for 3 guitars so you can see how they work in the real world and start writing your own harmonies.
There are few things more exhilarating than playing harmony guitar with a friend, or recording the parts yourself, but this course will teach you everything you need to know to take your playing to the next level.

Качество: DVDRip
Формат: MP4
Видео кодек: H.264
Аудио кодек: AAC
Видео: AVC, 1920x1080, 16:9, 25.000 fps, ~ 1500 Kbps
Аудио: AAC, 48.0 KHz, ~ 125.0 Kbps, 2 channels
Format : MPEG-4
Format profile : Base Media
Codec ID : isom
File size : 9.14 MiB
Duration : 47s 508ms
Overall bit rate mode : Variable
Overall bit rate : 1 614 Kbps
Encoded date : UTC 2015-04-20 11:12:03
Tagged date : UTC 2015-04-20 11:12:03
Video
ID : 1
Format : AVC
Format/Info : Advanced Video Codec
Format profile : High@L4.0
Format settings, CABAC : Yes
Format settings, ReFrames : 4 frames
Codec ID : avc1
Codec ID/Info : Advanced Video Coding
Duration : 47s 280ms
Bit rate : 1 500 Kbps
Maximum bit rate : 8 634 Kbps
Width : 1 920 pixels
Height : 1 080 pixels
Display aspect ratio : 16:9
Frame rate mode : Constant
Frame rate : 25.000 fps
Color space : YUV
Chroma subsampling : 4:2:0
Bit depth : 8 bits
Scan type : Progressive
Bits/(Pixel*Frame) : 0.029
Stream size : 8.41 MiB (92%)
Writing library : x264 core 144 r2525kMod 40bb568
Encoded date : UTC 2015-04-20 11:12:03
Tagged date : UTC 2015-04-20 11:12:03
Audio
ID : 2
Format : AAC
Format/Info : Advanced Audio Codec
Format profile : LC
Codec ID : 40
Duration : 47s 508ms
Bit rate mode : Variable
Bit rate : 125 Kbps
Maximum bit rate : 137 Kbps
Channel(s) : 2 channels
Channel positions : Front: L R
Sampling rate : 48.0 KHz
Compression mode : Lossy
Stream size : 724 KiB (8%)
Encoded date : UTC 2015-04-20 11:11:18
Tagged date : UTC 2015-04-20 11:12:03
У вас нет необходимых прав для просмотра вложений в этом сообщении.