Lick Library - Easy Funk Fusion Guitar Lessons With Levi Clay [2015, Игра на гитаре, DVDRip, ENG] (Видеоурок)

Гитара, бас гитара, балалайка, скрипка, виолончель и т.д.
Торрент Сидеров Личеров Размер
torrent_5047367.torrent
0 0 1.57 ГБ
Аватара пользователя
Stepan
Администратор
Сообщения: 52270
Зарегистрирован: 05 ноя 2011, 20:36

Lick Library - Easy Funk Fusion Guitar Lessons With Levi Clay [2015, Игра на гитаре, DVDRip, ENG] (Видеоурок)

Сообщение Stepan » 23 мар 2018, 21:31

Lick Library - Easy Funk Fusion Guitar Lessons With Levi Clay
Страна: USA
Тематика: Игра на гитаре
Тип раздаваемого материала: Видеоурок
Продолжительность: 02:35:04
Год выпуска: 2015
Описание: Клай Леви научит вас играть "простой джаз-фьюжн"
Материал представлен исключительно в ознакомительных целях! Купить можно тут:
http://www.licklibrary.com/store/levi-c ... ion-guitar
Доп. информация: Start taking your fusion playing to the next level with an injection of jazz and practical theory. Lessons by Levi Clay
In this excellent DVD, Levi Clay introduces the jazzy sounding melodic minor scale based on the sound, teaching you how to hear this scale in music. After taking you through simple ways to introduce this harmony into your improvisations via the pentatonic scale, Levi teaches you all melodic minor fingerings and a selection of 15 licks and phrases designed to bring out the sound of the scale.
This is all brought to a conclusion by learning a song written for this DVD with shades of Scott Henderson and John Scofield. The supplied backing track is the perfect tool for taking your new found skills to the next level.
Levi Clay is one of the UKs fastest rising players with credits as an author and transcriber in some of the worlds most loved publications including Guitar Interactive Magazine.
Levi has taught at London's Guitar Institute, and the prestigious IGF festivals. He maintains a steady wave of students around the world who are drawn to his detailed and methodical approach, and his passion for blues, jazz and rock music. Watch more of Levi’s lessons online at licklibrary.com
Качество: webrip
Формат: MPEG-4
Видео кодек: avc1
Аудио кодек: AAC
Видео: AVC at 1 500 Kbps; 1920 x 1080 (1.778) at 25.000 fps
Аудио: AAC at 156 Kbps; 2 channels, 48.0 KHz
General
Format : MPEG-4
Format profile : Base Media
Codec ID : isom
File size : 14.7 MiB
Duration : 1mn 14s
Overall bit rate mode : Variable
Overall bit rate : UTC 2014-09-29 17:03:10
Tagged date : UTC 2014-09-29 17:03:10
Video
ID : 1
Format : AVC
Format/Info : Advanced Video Codec
Format profile : High@L4
Format settings, CABAC : Yes
Format settings, ReFrames : 4 frames
Codec ID : avc1
Codec ID/Info : Advanced Video Coding
Duration : 1mn 14s
Bit rate : 1 500 Kbps
Maximum bit rate : 6 562 Kbps
Width : 1 920 pixels
Height : 1 080 pixels
Display aspect ratio : 16:9
Frame rate mode : Constant
Frame rate : 25.000 fps
Color space : YUV
Chroma subsampling : 4:2:0
Bit depth : 8 bits
Scan type : Progressive
Bits/(Pixel*Frame) : 0.029
Stream size : 13.3 MiB (90%)
Writing library : x264 core 142 r2479kMod dd79a61
Encoding settings : cabac=1 / ref=4 / deblock=1:0:0 / analyse=0x3:0x113 / me=umh / subme=8 / psy=1 / fade_compensate=0.00 / psy_rd=1.00:0.00 / mixed_ref=1 / me_range=16 / chroma_me=1 / trellis=1 / 8x8dct=1 / cqm=0 / deadzone=21,11 / fast_pskip=1 / chroma_qp_offset=-2 / threads=12 / lookahead_threads=2 / sliced_threads=0 / nr=0 / decimate=1 / interlaced=0 / bluray_compat=0 / constrained_intra=0 / fgo=0 / bframes=3 / b_pyramid=2 / b_adapt=2 / b_bias=0 / direct=3 / weightb=1 / open_gop=0 / weightp=2 / keyint=250 / keyint_min=25 / scenecut=40 / intra_refresh=0 / rc_lookahead=50 / rc=2pass / mbtree=1 / bitrate=1500 / ratetol=1.0 / qcomp=0.60 / qpmin=0 / qpmax=69 / qpstep=4 / cplxblur=20.0 / qblur=0.5 / ip_ratio=1.40 / aq=1:1.00
Encoded date : UTC 2014-09-29 17:03:10
Tagged date : UTC 2014-09-29 17:03:10
Audio
ID : 2
Format : AAC
Format/Info : Advanced Audio Codec
Format profile : LC
Codec ID : 40
Duration : 1mn 14s
Bit rate mode : Variable
Bit rate : 156 Kbps
Maximum bit rate : 181 Kbps
Channel(s) : 2 channels
Channel positions : Front: L R
Sampling rate : 48.0 KHz
Compression mode : Lossy
Stream size : 1.39 MiB (9%)
Encoded date : UTC 2014-09-29 17:01:55
Tagged date : UTC 2014-09-29 17:03:10



У вас нет необходимых прав для просмотра вложений в этом сообщении.