Lick Library - JAM with George Marios [2015, Игра на гитаре, DVDRip, ENG] (Видеоурок)

Гитара, бас гитара, балалайка, скрипка, виолончель и т.д.
Торрент Сидеров Личеров Размер
torrent_5047323.torrent
0 0 1.26 ГБ
Аватара пользователя
Stepan
Администратор
Сообщения: 52267
Зарегистрирован: 05 ноя 2011, 20:36

Lick Library - JAM with George Marios [2015, Игра на гитаре, DVDRip, ENG] (Видеоурок)

Сообщение Stepan » 23 мар 2018, 21:31

Lick Library - JAM with George Marios
Страна: USA
Тематика: Игра на гитаре
Тип раздаваемого материала: Видеоурок
Продолжительность: 02:00:11
Год выпуска: 2015
Язык: Английский
Перевод: Отсутствует
Описание: Джордж Мариос научит вас "джемовать" с собой
Материал представлен исключительно в ознакомительных целях! Купить можно тут: http://www.licklibrary.com/store/george ... rge-marios
Доп. информация: This superb DVD is a new and unique way to have fun, study and jam all at the same time. The DVD contains three top quality backing tracks, and can be approached in two ways, first you can "JAM" with the tracks flying solo, experimenting with different ideas, licks and solos. Alternatively you can trade solos with George, drawing inspiration from the ideas and techniques used in his solos.
Each track has three performances from George working across three levels of difficulty. Although the solos are improvised he has taken care to go for a basic intermediate and advanced level for each track. All the solos are transcribed and are available in pdf form along with the lessons. On screen graphics with chords and scales are provided when it's your turn to Jam.
This tutorial is an exciting way to interact with George while learning new licks and phrases performed in a real musical environment. This DVD is designed to be an enjoyable musical experience for everyone. Whether your style you will find this tutorial fun and inspiring.
Качество: webrip
Формат: MPEG-4
Видео кодек: avc1
Аудио кодек: AAC
Видео: AVC at 1 500 Kbps; 1920 x 1080 (1.778) at 25.000 fps
Аудио: AAC at 127 Kbps; 2 channels, 48.0 KHz
General
Format : MPEG-4
Format profile : Base Media
Codec ID : isom
File size : 22.5 MiB
Duration : 1mn 56s
Overall bit rate mode : Variable
Overall bit rate : 1 626 Kbps
Encoded date : UTC 2014-11-06 16:37:14
Tagged date : UTC 2014-11-06 16:37:14
Video
ID : 1
Format : AVC
Format/Info : Advanced Video Codec
Format profile : High@L4
Format settings, CABAC : Yes
Format settings, ReFrames : 4 frames
Codec ID : avc1
Codec ID/Info : Advanced Video Coding
Duration : 1mn 55s
Bit rate : 1 500 Kbps
Maximum bit rate : 8 542 Kbps
Width : 1 920 pixels
Height : 1 080 pixels
Display aspect ratio : 16:9
Frame rate mode : Constant
Frame rate : 25.000 fps
Color space : YUV
Chroma subsampling : 4:2:0
Bit depth : 8 bits
Scan type : Progressive
Bits/(Pixel*Frame) : 0.029
Stream size : 20.7 MiB (92%)
Writing library : x264 core 142 r2479kMod dd79a61
Encoding settings : cabac=1 / ref=4 / deblock=1:0:0 / analyse=0x3:0x113 / me=umh / subme=8 / psy=1 / fade_compensate=0.00 / psy_rd=1.00:0.00 / mixed_ref=1 / me_range=16 / chroma_me=1 / trellis=1 / 8x8dct=1 / cqm=0 / deadzone=21,11 / fast_pskip=1 / chroma_qp_offset=-2 / threads=12 / lookahead_threads=2 / sliced_threads=0 / nr=0 / decimate=1 / interlaced=0 / bluray_compat=0 / constrained_intra=0 / fgo=0 / bframes=3 / b_pyramid=2 / b_adapt=2 / b_bias=0 / direct=3 / weightb=1 / open_gop=0 / weightp=2 / keyint=250 / keyint_min=25 / scenecut=40 / intra_refresh=0 / rc_lookahead=50 / rc=2pass / mbtree=1 / bitrate=1500 / ratetol=1.0 / qcomp=0.60 / qpmin=0 / qpmax=69 / qpstep=4 / cplxblur=20.0 / qblur=0.5 / ip_ratio=1.40 / aq=1:1.00
Encoded date : UTC 2014-11-06 16:37:14
Tagged date : UTC 2014-11-06 16:37:14
Audio
ID : 2
Format : AAC
Format/Info : Advanced Audio Codec
Format profile : LC
Codec ID : 40
Duration : 1mn 56s
Bit rate mode : Variable
Bit rate : 127 Kbps
Maximum bit rate : 141 Kbps
Channel(s) : 2 channels
Channel positions : Front: L R
Sampling rate : 48.0 KHz
Compression mode : Lossy
Stream size : 1.75 MiB (8%)
Encoded date : UTC 2014-11-06 16:35:13
Tagged date : UTC 2014-11-06 16:37:14


У вас нет необходимых прав для просмотра вложений в этом сообщении.