Lick Library - 51 Blues Fusion Licks [2015, H.264, DVDRip, ENG] (Видеоурок)

Гитара, бас гитара, балалайка, скрипка, виолончель и т.д.
Торрент Сидеров Личеров Размер
torrent_5040481.torrent
0 0 2.01 ГБ
Аватара пользователя
Stepan
Администратор
Сообщения: 52267
Зарегистрирован: 05 ноя 2011, 20:36

Lick Library - 51 Blues Fusion Licks [2015, H.264, DVDRip, ENG] (Видеоурок)

Сообщение Stepan » 23 мар 2018, 21:31

51 Blues Fusion Licks
Страна: USA
Производитель: Lick Library
Тип раздаваемого материала: Видеоурок
Сайт производителя: http://www.licklibrary.com/store/levi-c ... -licks-dvd
Автор: Levi Clay
Продолжительность: 02:55:54
Год выпуска: 2015
Язык: Английский
Перевод: Отсутствует
Описание: Levi Clay научит вас играть 51 лик в стиле блюз-фьжн.
In this excellent DVD, Levi Clay takes you through 51 licks in a blues idiom that fuse various other sounds and genres.
From jazz chromaticism and swing syncopations to slide emulation and country double stops, this course will take you from BB King and Stevie Ray Vaughan to Robben Ford, Scott Henderson, Jimmy Kerring, Wayne Krantz and more, all while expanding your arsenal of licks.

Качество: DVDRip
Формат: MP4
Видео кодек: H.264
Аудио кодек: AAC
Видео: AVC, 1920x1080, 16:9, 25.000 fps, ~ 1500 Kbps
Аудио: AAC, 48.0 KHz, ~ 128.0 Kbps, 2 channels
Format : MPEG-4
Format profile : Base Media
Codec ID : isom
File size : 29.9 MiB
Duration : 2mn 33s
Overall bit rate mode : Variable
Overall bit rate : 1 632 Kbps
Encoded date : UTC 2015-01-29 22:31:20
Tagged date : UTC 2015-01-29 22:31:20
Video
ID : 1
Format : AVC
Format/Info : Advanced Video Codec
Format profile : High@L4.0
Format settings, CABAC : Yes
Format settings, ReFrames : 4 frames
Codec ID : avc1
Codec ID/Info : Advanced Video Coding
Duration : 2mn 33s
Bit rate : 1 500 Kbps
Maximum bit rate : 3 105 Kbps
Width : 1 920 pixels
Height : 1 080 pixels
Display aspect ratio : 16:9
Frame rate mode : Constant
Frame rate : 25.000 fps
Color space : YUV
Chroma subsampling : 4:2:0
Bit depth : 8 bits
Scan type : Progressive
Bits/(Pixel*Frame) : 0.029
Stream size : 27.4 MiB (92%)
Writing library : x264 core 144 r2525kMod 40bb568
Encoded date : UTC 2015-01-29 22:31:20
Tagged date : UTC 2015-01-29 22:31:21
Audio
ID : 2
Format : AAC
Format/Info : Advanced Audio Codec
Format profile : LC
Codec ID : 40
Duration : 2mn 33s
Bit rate mode : Variable
Bit rate : 128 Kbps
Maximum bit rate : 151 Kbps
Channel(s) : 2 channels
Channel positions : Front: L R
Sampling rate : 48.0 KHz
Compression mode : Lossy
Stream size : 2.35 MiB (8%)
Encoded date : UTC 2015-01-29 22:28:11
Tagged date : UTC 2015-01-29 22:31:21
У вас нет необходимых прав для просмотра вложений в этом сообщении.