[Lick Library] Absolute Beginner – Jazz Rhythm Guitar [2015, H.264, DVDRip, ENG] (Видеоурок)

Гитара, бас гитара, балалайка, скрипка, виолончель и т.д.
Торрент Сидеров Личеров Размер
torrent_5030398.torrent
0 0 1.64 ГБ
Аватара пользователя
Stepan
Администратор
Сообщения: 52267
Зарегистрирован: 05 ноя 2011, 20:36

[Lick Library] Absolute Beginner – Jazz Rhythm Guitar [2015, H.264, DVDRip, ENG] (Видеоурок)

Сообщение Stepan » 23 мар 2018, 21:31

Absolute Beginner – Jazz Rhythm Guitar
Страна: USA
Производитель: Lick Library
Тип раздаваемого материала: Видеоурок
Сайт производителя: licklibrary.com/store/tom-quayle/56470/absolute-beginner-jazz-rhythm-guitar
Автор: Tom Quayle
Продолжительность: 02:34:03
Год выпуска: 2015
Язык: Английский
Перевод: Отсутствует
Описание: В этот превосходный DVD Tom Quayle учит всех вас Essentials для начать путешествие в джаз ритм музыки. Включает уроки, язычок и замятия бумаги контакты
Tom принимает наиболее важные аспекты этого стиля и ломает их вниз, в простые шаги, вы с нуля для поворота героя в короткий период времени.
In this superb DVD Tom Quayle teaches you all of the essentials required to begin your journey with Jazz Rhythm guitar playing. Includes lessons, TAB and jam tracks
Tom takes the most important aspects of this style and breaks them down into easy to follow steps that take you from zero to swing hero in a short period of time.
ou’ll learn techniques such chord construction, the harmonised major scale, 7th chords, Major and Minor II-V-I’s, common chord progressions, swing rhythms and two complete songs with superb professional backing tracks. Start your jazz journey the right way with this fantastic course.

Качество: DVDRip
Формат: MP4
Видео кодек: H.264
Аудио кодек: AAC
Видео: AVC, 1920x1080, 16:9, 25.000 fps, ~ 1500 Kbps
Аудио: AAC, 48.0 KHz, ~ 127.0 Kbps, 2 channels
Complete name : D:\01.15\New One\NEW\Lick Library - Tom Quayle Jazz Rhythm for Absolute Beginners\2_Getting_a_Jazz_Tone.mp4
Format : MPEG-4
Format profile : Base Media
Codec ID : isom
File size : 22.0 MiB
Duration : 1mn 53s
Overall bit rate mode : Variable
Overall bit rate : 1 628 Kbps
Encoded date : UTC 2014-10-27 12:41:18
Tagged date : UTC 2014-10-27 12:41:18
Video
ID : 1
Format : AVC
Format/Info : Advanced Video Codec
Format profile : High@L4.0
Format settings, CABAC : Yes
Format settings, ReFrames : 4 frames
Codec ID : avc1
Codec ID/Info : Advanced Video Coding
Duration : 1mn 53s
Bit rate : 1 500 Kbps
Maximum bit rate : 4 244 Kbps
Width : 1 920 pixels
Height : 1 080 pixels
Display aspect ratio : 16:9
Frame rate mode : Constant
Frame rate : 25.000 fps
Color space : YUV
Chroma subsampling : 4:2:0
Bit depth : 8 bits
Scan type : Progressive
Bits/(Pixel*Frame) : 0.029
Stream size : 20.2 MiB (92%)
Writing library : x264 core 142 r2479kMod dd79a61
Encoded date : UTC 2014-10-27 12:41:18
Tagged date : UTC 2014-10-27 12:41:18
Audio
ID : 2
Format : AAC
Format/Info : Advanced Audio Codec
Format profile : LC
Codec ID : 40
Duration : 1mn 53s
Bit rate mode : Variable
Bit rate : 127 Kbps
Maximum bit rate : 147 Kbps
Channel(s) : 2 channels
Channel positions : Front: L R
Sampling rate : 48.0 KHz
Compression mode : Lossy
Stream size : 1.71 MiB (8%)
Encoded date : UTC 2014-10-27 12:39:30
Tagged date : UTC 2014-10-27 12:41:18
У вас нет необходимых прав для просмотра вложений в этом сообщении.