[Lick Library] Acoustic Blues for Absolute Beginners [2014, H.264, DVDRip, ENG] (Видеоурок)

Гитара, бас гитара, балалайка, скрипка, виолончель и т.д.
Торрент Сидеров Личеров Размер
torrent_5017007.torrent
0 0 1.18 ГБ
Аватара пользователя
Stepan
Администратор
Сообщения: 52267
Зарегистрирован: 05 ноя 2011, 20:36

[Lick Library] Acoustic Blues for Absolute Beginners [2014, H.264, DVDRip, ENG] (Видеоурок)

Сообщение Stepan » 23 мар 2018, 21:31

Acoustic Blues for Absolute Beginners
Страна: USA
Производитель: Lick Library
Тип раздаваемого материала: Видеоурок
Сайт производителя: http://www.licklibrary.com/store/danny- ... -beginners
Автор: Danny Gill
Продолжительность: 02:12:00
Год выпуска: 2014
Язык: Английский
Перевод: Отсутствует
Описание: Это превосходное DVD- включает в себя выбор легко поглощать уроки , которые разработаны , чтобы научить новичка гитариста некоторые из существенных основ BLUES гитаре . В течение этого DVD вы узнаете некоторые основные методы соло-гитара , такие как строки , изгибания молотком по и снять , раздвижные, и вибрато , что могут быть и другие стили игры на гитаре от джаза до металла. Этот DVD включает в себя: методы Основные блюз в том числе ; 12 бар блюз в Е ( доминирующие 7- аккорды ) блюз палец стиль аккордов Украшательства 8 бар блюз Быстрый изменение блюз и воспроизведения в случайном порядке ритмы 12 бар блюз в A ( 6-я и 9-я аккорды ) Blues отводы соло на блюз прогрессии ; лижет , двойные остановки , поворот облизывает Весы , арпеджио и многое другое !
This superb DVD includes a selection of easy to absorb lessons that are designed to teach the beginner guitarist some of the essential basics of BLUES guitar playing. Over the course of this DVD you will learn some essential lead guitar techniques such as string bending, hammer on and pull off, sliding, and vibrato that can also be other styles of guitar playing from jazz to metal. This DVD includes: Essential blues techniques including; 12 bar blues in E (dominant 7th chords) Finger style blues Chord embellishments 8 bar blues Quick change blues and shuffle rhythms 12 bar blues in A (6th and 9th chords) Blues bends Soloing over a blues progression; licks, double stops, turnaround licks Scales, arpeggios and much more! read less
Качество: DVDRip
Формат: MP4
Видео кодек: H.264
Аудио кодек: AAC
Видео: AVC, 1024x576, 16:9, 25.000 fps, ~ 1500 Kbps
Аудио: AAC, 48.0 KHz, ~ 153.0 Kbps, 2 channels
Format : MPEG-4
Format profile : Base Media
Codec ID : isom
File size : 8.71 MiB
Duration : 44s 437ms
Overall bit rate mode : Variable
Overall bit rate : 1 645 Kbps
Encoded date : UTC 2014-06-13 16:54:35
Tagged date : UTC 2014-06-13 16:54:35
Video
ID : 1
Format : AVC
Format/Info : Advanced Video Codec
Format profile : High@L3.1
Format settings, CABAC : Yes
Format settings, ReFrames : 5 frames
Codec ID : avc1
Codec ID/Info : Advanced Video Coding
Duration : 44s 280ms
Bit rate : 1 500 Kbps
Maximum bit rate : 3 923 Kbps
Width : 1 024 pixels
Height : 576 pixels
Display aspect ratio : 16:9
Frame rate mode : Constant
Frame rate : 25.000 fps
Color space : YUV
Chroma subsampling : 4:2:0
Bit depth : 8 bits
Scan type : Progressive
Bits/(Pixel*Frame) : 0.102
Stream size : 7.88 MiB (90%)
Writing library : x264 core 142 r2409kMod d6b4e63
Encoded date : UTC 2014-06-13 16:54:35
Tagged date : UTC 2014-06-13 16:54:35
Audio
ID : 2
Format : AAC
Format/Info : Advanced Audio Codec
Format profile : LC
Codec ID : 40
Duration : 44s 437ms
Bit rate mode : Variable
Bit rate : 153 Kbps
Maximum bit rate : 167 Kbps
Channel(s) : 2 channels
Channel positions : Front: L R
Sampling rate : 48.0 KHz
Compression mode : Lossy
Stream size : 828 KiB (9%)
Encoded date : UTC 2014-06-13 16:54:15
Tagged date : UTC 2014-06-13 16:54:35
У вас нет необходимых прав для просмотра вложений в этом сообщении.