Lick Library - Learn to Play - Easy Acoustic Songs [2015, Игра на гитаре, webrip, ENG] (Видеоурок)

Гитара, бас гитара, балалайка, скрипка, виолончель и т.д.
Торрент Сидеров Личеров Размер
torrent_5012347.torrent
0 0 1.61 ГБ
Аватара пользователя
Stepan
Администратор
Сообщения: 52270
Зарегистрирован: 05 ноя 2011, 20:36

Lick Library - Learn to Play - Easy Acoustic Songs [2015, Игра на гитаре, webrip, ENG] (Видеоурок)

Сообщение Stepan » 23 мар 2018, 21:31

Lick Library - Learn to Play - Easy Acoustic Songs
Страна: USA
Тематика: Игра на гитаре
Тип раздаваемого материала: Видеоурок
Продолжительность: 02:03:12
Год выпуска: 2015
Язык: Английский
Перевод: Отсутствует
Описание: Learn ten songs for Acoustic guitar, lessons by Danny Gill
ED SHEERAN Thinking Out Loud
ED SHEERAN I See Fire
TOM PETTY Free Fallin’
JOHN LENNON Working Class Hero
BOB MARLEY Redemption Song
ROLLING STONES Angie
EAGLES Hotel California
BEATLES Norwegian Wood
PASSENGER Let Her Go
KANSAS Dust In The Wind
This DVD, suitable for beginners or intermediate players, will take you step by step through each song, with clear lessons that allow you to learn at your own pace.
Внимание! Материал представлен исключительно для ознакомления! Купить можно тут: http://www.licklibrary.com/store/danny- ... uCwvw.dpuf
Доп. информация: Дэнни Гилл научит играть "простые" песни
Качество: webrip
Формат: MPEG-4
Видео кодек: AVC
Аудио кодек: AAC
Видео: AVC at 1 500 Kbps; 1920 x 1080 (1.778) at 25.000 fps
Аудио: AAC at 124 Kbps; 2 channels, 48.0 KHz
General
Format : MPEG-4
Format profile : Base Media
Codec ID : isom
File size : 7.49 MiB
Duration : 38s 975ms
Overall bit rate mode : Variable
Overall bit rate : 1 613 Kbps
Encoded date : UTC 2015-04-28 10:45:18
Tagged date : UTC 2015-04-28 10:45:18
Video
ID : 1
Format : AVC
Format/Info : Advanced Video Codec
Format profile : High@L4
Format settings, CABAC : Yes
Format settings, ReFrames : 4 frames
Codec ID : avc1
Codec ID/Info : Advanced Video Coding
Duration : 38s 720ms
Bit rate : 1 500 Kbps
Maximum bit rate : 6 919 Kbps
Width : 1 920 pixels
Height : 1 080 pixels
Display aspect ratio : 16:9
Frame rate mode : Constant
Frame rate : 25.000 fps
Color space : YUV
Chroma subsampling : 4:2:0
Bit depth : 8 bits
Scan type : Progressive
Bits/(Pixel*Frame) : 0.029
Stream size : 6.90 MiB (92%)
Writing library : x264 core 144 r2525kMod 40bb568
Encoding settings : cabac=1 / ref=4 / deblock=1:0:0 / analyse=0x3:0x113 / me=umh / subme=8 / psy=1 / fade_compensate=0.00 / psy_rd=1.00:0.00 / mixed_ref=1 / me_range=16 / chroma_me=1 / trellis=1 / 8x8dct=1 / cqm=0 / deadzone=21,11 / fast_pskip=1 / chroma_qp_offset=-2 / threads=12 / lookahead_threads=2 / sliced_threads=0 / nr=0 / decimate=1 / interlaced=0 / bluray_compat=0 / constrained_intra=0 / fgo=0 / bframes=3 / b_pyramid=2 / b_adapt=2 / b_bias=0 / direct=3 / weightb=1 / open_gop=0 / weightp=2 / keyint=250 / keyint_min=25 / scenecut=40 / intra_refresh=0 / rc_lookahead=50 / rc=2pass / mbtree=1 / bitrate=1500 / ratetol=1.0 / qcomp=0.60 / qpmin=0 / qpmax=69 / qpstep=4 / cplxblur=20.0 / qblur=0.5 / ip_ratio=1.40 / aq=1:1.00
Encoded date : UTC 2015-04-28 10:45:18
Tagged date : UTC 2015-04-28 10:45:18
Audio
ID : 2
Format : AAC
Format/Info : Advanced Audio Codec
Format profile : LC
Codec ID : 40
Duration : 38s 975ms
Bit rate mode : Variable
Bit rate : 124 Kbps
Maximum bit rate : 139 Kbps
Channel(s) : 2 channels
Channel positions : Front: L R
Sampling rate : 48.0 KHz
Compression mode : Lossy
Stream size : 589 KiB (8%)
Encoded date : UTC 2015-04-28 10:44:39
Tagged date : UTC 2015-04-28 10:45:18


У вас нет необходимых прав для просмотра вложений в этом сообщении.