Lick Library - 51 Advanced Rock Licks You Must Learn [2014, Игра на гитаре, webrip, ENG] (Видеоурок)

Гитара, бас гитара, балалайка, скрипка, виолончель и т.д.
Торрент Сидеров Личеров Размер
torrent_5001135.torrent
0 0 2.1 ГБ
Аватара пользователя
Stepan
Администратор
Сообщения: 52267
Зарегистрирован: 05 ноя 2011, 20:36

Lick Library - 51 Advanced Rock Licks You Must Learn [2014, Игра на гитаре, webrip, ENG] (Видеоурок)

Сообщение Stepan » 23 мар 2018, 21:32

Lick Library - 51 Advanced Rock Licks You Must Learn
Страна: USA
Тематика: Игра на гитаре
Тип раздаваемого материала: Видеоурок
Продолжительность: 02:04:00
Год выпуска: 2014
Язык: Английский
Перевод: Отсутствует
Описание
51 Advanced Rock Licks You Must Learn DVD by Tom Quayle
By Tom Quayle
Learn 51 advanced rock guitar licks, includes lessons and tablature. Guitar Lessons by Tom Quayle
Take your rock playing to the next level and learn some cutting edge licks to help you stand out from the crowd!
Tom Quayle will teach you 51 essential advanced rock licks that are designed to give you the latest and greatest techniques, phrasing and rhythmic skills. Tom covers all modern techniques including legato, tapping, alternate and economy picking for some of the most impressive and useful licks you'll ever learn! This DVD will give you an excellent insight into developing your playing, and at the same time adding 51 killer licks to your repertoire.
Tom Quayle is a well respected guitarist and teacher whose influences include Greg Howe, Wayne Krantz, Tim Miller and Brett Garsed. He is a regular contributor to iGuitar digital magazine, view issues at iguitarmag.com. His blistering technique has been applauded by guitar legends such as Brett Garsed, and John Petrucci.
Материал представлен исключительно в ознакомительных целях! Купить можно тут: http://www.licklibrary.com/store/tom-qu ... 8ba7T.dpuf
Доп. информация: Маньяк по части техники легато и вообще маньяк по жизни Том Койл учит играть 51 лик в стиле модерн-рок.
Качество: webrip
Формат: MPEG-4
Видео кодек: AVC
Аудио кодек: avc1
Видео: AVC at 1 500 Kbp; 1920 x 1080 (1.778) at 25.000 fps
Аудио: AAC at 123 Kbps; 2 channels, 48.0 KHz
General
ll_51advancedrocklicks_1.mp4
Format : MPEG-4
Format profile : Base Media
Codec ID : isom
File size : 5.46 MiB
Duration : 28s 735ms
Overall bit rate mode : Variable
Overall bit rate : 1 595 Kbps
Encoded date : UTC 2014-10-10 08:42:57
Tagged date : UTC 2014-10-10 08:42:57
Video
ID : 1
Format : AVC
Format/Info : Advanced Video Codec
Format profile : High@L4
Format settings, CABAC : Yes
Format settings, ReFrames : 4 frames
Codec ID : avc1
Codec ID/Info : Advanced Video Coding
Duration : 28s 520ms
Bit rate : 1 500 Kbps
Maximum bit rate : 6 688 Kbps
Width : 1 920 pixels
Height : 1 080 pixels
Display aspect ratio : 16:9
Frame rate mode : Constant
Frame rate : 25.000 fps
Color space : YUV
Chroma subsampling : 4:2:0
Bit depth : 8 bits
Scan type : Progressive
Bits/(Pixel*Frame) : 0.029
Stream size : 5.03 MiB (92%)
Writing library : x264 core 142 r2479kMod dd79a61
Encoding settings : cabac=1 / ref=4 / deblock=1:0:0 / analyse=0x3:0x113 / me=umh / subme=8 / psy=1 / fade_compensate=0.00 / psy_rd=1.00:0.00 / mixed_ref=1 / me_range=16 / chroma_me=1 / trellis=1 / 8x8dct=1 / cqm=0 / deadzone=21,11 / fast_pskip=1 / chroma_qp_offset=-2 / threads=12 / lookahead_threads=2 / sliced_threads=0 / nr=0 / decimate=1 / interlaced=0 / bluray_compat=0 / constrained_intra=0 / fgo=0 / bframes=3 / b_pyramid=2 / b_adapt=2 / b_bias=0 / direct=3 / weightb=1 / open_gop=0 / weightp=2 / keyint=250 / keyint_min=25 / scenecut=40 / intra_refresh=0 / rc_lookahead=50 / rc=2pass / mbtree=1 / bitrate=1500 / ratetol=1.0 / qcomp=0.60 / qpmin=0 / qpmax=69 / qpstep=4 / cplxblur=20.0 / qblur=0.5 / ip_ratio=1.40 / aq=1:1.00
Encoded date : UTC 2014-10-10 08:42:57
Tagged date : UTC 2014-10-10 08:42:57
Audio
ID : 2
Format : AAC
Format/Info : Advanced Audio Codec
Format profile : LC
Codec ID : 40
Duration : 28s 735ms
Bit rate mode : Variable
Bit rate : 123 Kbps
Maximum bit rate : 139 Kbps
Channel(s) : 2 channels
Channel positions : Front: L R
Sampling rate : 48.0 KHz
Compression mode : Lossy
Stream size : 431 KiB (8%)
Encoded date : UTC 2014-10-10 08:42:30
Tagged date : UTC 2014-10-10 08:42:57


У вас нет необходимых прав для просмотра вложений в этом сообщении.