Lick Library - Learn to play Simple Solos [2015, Игра на гитаре, webrip, ENG] (Видеоурок)

Гитара, бас гитара, балалайка, скрипка, виолончель и т.д.
Торрент Сидеров Личеров Размер
torrent_5039283.torrent
0 0 1.11 ГБ
Аватара пользователя
Stepan
Администратор
Сообщения: 52267
Зарегистрирован: 05 ноя 2011, 20:36

Lick Library - Learn to play Simple Solos [2015, Игра на гитаре, webrip, ENG] (Видеоурок)

Сообщение Stepan » 23 мар 2018, 22:29

Lick Library - Learn to play Simple Solos
Страна: USA
Тематика: Игра на гитаре
Тип раздаваемого материала: Видеоурок
Продолжительность: 02:01:13
Год выпуска: 2015
Язык: Английский
Перевод: Отсутствует
Описание: Дэнни Гилл научит вас играть "простые" соло
Доп. информация: Sometimes the simplest guitar solos are the best ones. Danny Gill proves this point by teaching you seven of the simplest, yet memorable and inspiring solos from seven huge rock and blues hits. Each solo is broken down taught note for note by Danny and will leave you with a deeper understanding of how to make your own simple solos more powerful and effective. Lessons include;
Eagles - One Of These Nights
Bon Jovi - Wanted Dead Or Alive
Nirvana - Smells Like Teen Spirit
The Beatles - Something
Bad Company - Can’t Get Enough
Joan Jett - I Love Rock ‘n’ Roll
Peter Green - Need Your Love So Bad
Материал представлен исключительно в ознакомительных целях! Купить можно тут: http://www.licklibrary.com/store/56395/ ... 9p95c.dpuf
Качество: webrip
Формат: MPEG-4
Видео кодек: AAC
Аудио кодек: MP3
Видео: AVC at 1 500 Kbps; 1920 x 1080 (1.778) at 25.000 fps
Аудио: AAC at 123 Kbps; 2 channels, 48.0 KHz
General
Complete name : D:\_Guitrar video\Lick Library - Learn to Play - Simple Solos\1_Intro.mp4
Format : MPEG-4
Format profile : Base Media
Codec ID : isom
File size : 6.60 MiB
Duration : 34s 197ms
Overall bit rate mode : Variable
Overall bit rate : 1 618 Kbps
Encoded date : UTC 2014-12-03 15:13:21
Tagged date : UTC 2014-12-03 15:13:21
Video
ID : 1
Format : AVC
Format/Info : Advanced Video Codec
Format profile : High@L4
Format settings, CABAC : Yes
Format settings, ReFrames : 4 frames
Codec ID : avc1
Codec ID/Info : Advanced Video Coding
Duration : 34s 0ms
Bit rate : 1 500 Kbps
Maximum bit rate : 6 022 Kbps
Width : 1 920 pixels
Height : 1 080 pixels
Display aspect ratio : 16:9
Frame rate mode : Constant
Frame rate : 25.000 fps
Color space : YUV
Chroma subsampling : 4:2:0
Bit depth : 8 bits
Scan type : Progressive
Bits/(Pixel*Frame) : 0.029
Stream size : 6.08 MiB (92%)
Writing library : x264 core 142 r2479kMod dd79a61
Encoding settings : cabac=1 / ref=4 / deblock=1:0:0 / analyse=0x3:0x113 / me=umh / subme=8 / psy=1 / fade_compensate=0.00 / psy_rd=1.00:0.00 / mixed_ref=1 / me_range=16 / chroma_me=1 / trellis=1 / 8x8dct=1 / cqm=0 / deadzone=21,11 / fast_pskip=1 / chroma_qp_offset=-2 / threads=12 / lookahead_threads=2 / sliced_threads=0 / nr=0 / decimate=1 / interlaced=0 / bluray_compat=0 / constrained_intra=0 / fgo=0 / bframes=3 / b_pyramid=2 / b_adapt=2 / b_bias=0 / direct=3 / weightb=1 / open_gop=0 / weightp=2 / keyint=250 / keyint_min=25 / scenecut=40 / intra_refresh=0 / rc_lookahead=50 / rc=2pass / mbtree=1 / bitrate=1500 / ratetol=1.0 / qcomp=0.60 / qpmin=0 / qpmax=69 / qpstep=4 / cplxblur=20.0 / qblur=0.5 / ip_ratio=1.40 / aq=1:1.00
Encoded date : UTC 2014-12-03 15:13:21
Tagged date : UTC 2014-12-03 15:13:21
Audio
ID : 2
Format : AAC
Format/Info : Advanced Audio Codec
Format profile : LC
Codec ID : 40
Duration : 34s 197ms
Bit rate mode : Variable
Bit rate : 123 Kbps
Maximum bit rate : 137 Kbps
Channel(s) : 2 channels
Channel positions : Front: L R
Sampling rate : 48.0 KHz
Compression mode : Lossy
Stream size : 514 KiB (8%)
Encoded date : UTC 2014-12-03 15:12:47
Tagged date : UTC 2014-12-03 15:13:21



У вас нет необходимых прав для просмотра вложений в этом сообщении.