National Geographic: Покинутые: (1 сезон 13 серий из 13) / Abandoned [2012, Документальный, SATRip]

Научно-популярные фильмы Национального географического общества
Торрент Сидеров Личеров Размер
torrent_4348080.torrent
0 0 4.49 ГБ
Аватара пользователя
Солнышко
Сообщения: 22944
Зарегистрирован: 13 янв 2016, 22:10

National Geographic: Покинутые: (1 сезон 13 серий из 13) / Abandoned [2012, Документальный, SATRip]

Сообщение Солнышко » 23 мар 2018, 22:36

Покинутые / Abandoned
Год выпуска: 2012
Страна: США, National Geographic
Жанр: Документальный
Продолжительность: 00:22:29
Перевод: Профессиональный (одноголосый) студия АРК ТВ
Русские субтитры: нет
Описание: Джей Чейкен и его друзья Ден и Марк зарабатывают деньги, разыскивая оставленные предметы в заброшенных зданиях. Если вещь редкая и имеет историю, они покупают ее, затем восстанавливают и перепродают. Они делают все для сохранения истории Америки.
качество: SATRip
формат: AVI
видеокодек: XviD
аудиокодек: AC3
Видео: XviD. 720x400 / (16:9) 25.00fps 1293 Кбит/сек
Аудио: Русский AC3, 48000Hz stereo 192 Кбит/сек
Аудио: Английский AC3, 48000Hz stereo 192 Кбит/сек
Официальный сайт

Релиз
General
Complete name : C:\Users\Администратор\Desktop\Покинутые Негритянская церковь в Филадельфии.avi
Format : AVI
Format/Info : Audio Video Interleave
File size : 240 MiB
Duration : 22mn 29s
Overall bit rate : 1 494 Kbps
Writing application : VirtualDubMod 1.5.1.1a (build 1155/release)
Writing library : VirtualDubMod build 1155/release
Video
ID : 0
Format : MPEG-4 Visual
Format profile : Advanced Simple@L5
Format settings, BVOP : 2
Format settings, QPel : No
Format settings, GMC : No warppoints
Format settings, Matrix : Default (H.263)
Muxing mode : Packed bitstream
Codec ID : XVID
Codec ID/Hint : XviD
Duration : 22mn 29s
Bit rate : 1 293 Kbps
Width : 720 pixels
Height : 400 pixels
Display aspect ratio : 16:9
Frame rate : 25.000 fps
Color space : YUV
Chroma subsampling : 4:2:0
Bit depth : 8 bits
Scan type : Progressive
Compression mode : Lossy
Bits/(Pixel*Frame) : 0.180
Stream size : 208 MiB (87%)
Writing library : XviD 1.2.1 (UTC 2008-12-04)
Audio
ID : 1
Format : AC-3
Format/Info : Audio Coding 3
Mode extension : CM (complete main)
Format settings, Endianness : Big
Codec ID : 2000
Duration : 22mn 29s
Bit rate mode : Constant
Bit rate : 192 Kbps
Channel(s) : 2 channels
Channel positions : Front: L R
Sampling rate : 48.0 KHz
Bit depth : 16 bits
Compression mode : Lossy
Delay relative to video : 8ms
Stream size : 30.9 MiB (13%)
Alignment : Split accross interleaves
Interleave, duration : 40 ms (1.00 video frame)
Interleave, preload duration : 500 ms
Друзья направляются в город – призрак в Коннектикуте. Их ждет множество старинных ценностей и неожиданных открытий. Но чтобы забрать их с собой, они должны быть осторожны.
Джей Чейкен, Дэн и Марк направляются на хлопковый завод в Джорджии, построенный в начале 19 века. Он находится в таинственном полуразрушенном поместье. У них есть шанс найти древние сокровища.
Друзья исследуют заброшенный курортный отель начала века. Они приехали туда не отдыхать. Смогут ли они найти сокровища после сухого закона и сорвать куш или даром потеряют время.
Специалисты по ремонту Джей Чейкен, Дэн и Марк направляются в бумажную фабрику в Мэне. Это огромное место в пять с половиной гектаров. У них есть всего один шанс найти ценные предметы и убедить хозяина продать их.
Заброшенная ферма, построенная в период гражданской войны – это внушительная реликвия прошлого, полная опасностей. И команда Джея Чайкина, несмотря на столь опасную устаревшую постройку, вновь направляется для поиска ценных артефактов. Но если вы хотите найти сокровища, нужно идти туда, куда ни кто не пойдет.
Теперь команда Джея Чейкена выбирает шелкопрядильную фабрику, опечатанную уже 65 лет. Но возможно в ней они найдут исторические ценности, как впрочем, могут уйти и с пустыми руками!
Маршрут для поиска ценных исторических артефактов теперь ведет в поместье, построенное в 30е годы 19 века! Оно готовит для Джея Чейкена, Дэна и Марка множество уникальных находок!
Добро пожаловать в Таппан штат Нью- Йорк. Джей, Дэн и Марк находятся в месте, куда большинству путь заказан. Масонская ложа. Самое место для странных символов и тайных обрядов. В последний момент всё меняется, они находят нечто удивительное…
Джей, Дэн и Марк направляются в городок, где родилась американская нефтяная промышленность. Ойл Сити, штат Пенсильвания. Нефтяные магнаты держали в Национальном банке Ойл Сити все свои деньги. Банк обслуживал богатейших людей в мире. Друзья поскребут там по сусекам, вдруг уцелело там что- то интересное. Если попадутся вещи той эпохи, можно считать - не зря съездили.
Джей Чейкен, Дэн и Марк направляются в замок пива, построенный в 19 веке. Они жаждут найти древние сокровища. Но даже отыскав их, друзья рискуют остаться с носом.
Джей Чейкен, Дэн и Марк на этот раз направляются в здание, построенное в 1844 году. Им предстоит исследовать две тысячи двести квадратных метров! Там темно и все разваливается на части, но именно тут они могут найти самые настоящие сокровища и им необходимо успеть вынести ценные вещи пока эту старинную церковь не снесли.
Сегодня Джей Чейкен, Дэн и Марк едут на Скрентонскую кружевную фабрику, зданию, построенному сто лет назад. У них есть всего день, на то чтобы найти и увезти с собой все ценные предметы, какие удастся им найти.
Джей, Дэн и Марк держат путь на север, на мраморный завод, где рождались самые знаменитые американские памятники. Здание завода давно заброшено. В нём полно раритетов и вещей, которые заинтересуют коллекционеров. Но чтобы увести их домой, придется достичь компромисса.
Собран весь сезон
У вас нет необходимых прав для просмотра вложений в этом сообщении.