Romane - La Guitare Jazz Manouche [2002, Гитара, DVDRip] (Видеоурок)

Гитара, бас гитара, балалайка, скрипка, виолончель и т.д.
Торрент Сидеров Личеров Размер
torrent_5482546.torrent
0 0 701.58 МБ
Аватара пользователя
Stepan
Администратор
Сообщения: 52267
Зарегистрирован: 05 ноя 2011, 20:36

Romane - La Guitare Jazz Manouche [2002, Гитара, DVDRip] (Видеоурок)

Сообщение Stepan » 23 мар 2018, 22:37

Romane - La Guitare Jazz Manouche

Страна: France
Тематика: Гитара
Тип раздаваемого материала: Видеоурок
Продолжительность: 01:14:17
Год выпуска: 2002
Язык: Французский
Перевод: Отсутствует
Качество: DVDRip
Формат: AVI
Видео кодек: DivX
Аудио кодек: MP3
Видео: DivX, 672X496, 4:3, 1215 kbps, 25.000 fps
Аудио: MP3, 96 kbps, 32 kHz, 2 ch
Описание: Характерные технические и гармонические приемы цыганского джаза из арсенала его главного представителя Джанго Райнхарта.

Код: Выделить всё

Формат                                   : AVI
Формат/Информация                        : Audio Video Interleave
Размер файла                             : 700 Мбайт
Общий поток                              : 1317 Кбит/сек
Видео
Идентификатор                            : 0
Формат                                   : MPEG-4 Visual
Параметр BVOP формата                    : Нет
Параметр QPel формата                    : Нет
Параметр GMC формата                     : Без точки перехода
Параметр матрицы формата                 : Default (H.263)
Идентификатор кодека                     : DX50
Идентификатор кодека/Подсказка           : DivX 5
Битрейт                                  : 1215 Кбит/сек
Ширина                                   : 672 пикселя
Высота                                   : 496 пикселей
Соотношение сторон                       : 4:3
Частота кадров                           : 25,000 кадров/сек
Цветовое пространство                    : YUV
Субдискретизация насыщенности            : 4:2:0
Битовая глубина                          : 8 бит
Тип развёртки                            : Прогрессивная
Метод сжатия                             : С потерями
Бит/(Пиксели*Кадры)                      : 0.146
Размер потока                            : 645 Мбайт (92%)
Библиотека кодирования                   : DivX 5.1.1 (Maupiti) (UTC 2003-11-19)
Аудио
Идентификатор                            : 1
Формат                                   : MPEG Audio
Версия формата                           : Version 1
Профиль формата                          : Layer 3
Режим                                    : Joint stereo
Расширение режима                        : MS Stereo
Идентификатор кодека                     : 55
Идентификатор кодека/Подсказка           : MP3
Вид битрейта                             : Постоянный
Битрейт                                  : 96,0 Кбит/сек
Каналы                                   : 2 канала
Частота                                  : 32,0 КГц
Метод сжатия                             : С потерями
Размер потока                            : 51,0 Мбайт (7%)
Выравнивание                             : Соединение по промежуткам
Продолжительность промежутка             : 720  мс. (18,00 видеокадров)
У вас нет необходимых прав для просмотра вложений в этом сообщении.