National Geographic : Покорители бездны / National Geographic : Master of the Abyss [1999, Научно-популярный, DVDRip]

Научно-популярные фильмы Национального географического общества
Торрент Сидеров Личеров Размер
torrent_4587971.torrent
0 0 617.45 МБ
Аватара пользователя
Солнышко
Сообщения: 22944
Зарегистрирован: 13 янв 2016, 22:10

National Geographic : Покорители бездны / National Geographic : Master of the Abyss [1999, Научно-популярный, DVDRip]

Сообщение Солнышко » 23 мар 2018, 22:38

National Geographic : Покорители бездны / National Geographic : Master of the Abyss
Год выпуска: 1999
Страна: США
Жанр: Научно-популярный
Продолжительность: 00:52:37
Перевод: Студийный (одноголосый закадровый) (Ю.Сербин)
Русские субтитры: нет
Описание: Рассказ о глубоководных погружениях
качество: DVDRip
формат: AVI
Видео: Video: 576x352 (1.33:1), 25 fps, XviD build 50 ~1999 kbps avg, 0.26 bit/pixe
Аудио: Audio: 44.100 kHz, MPEG Layer 3, 2 ch, ~128.00 kbps avg
General
Complete name : H:\NG Покорители бездны.avi
Format : AVI
Format/Info : Audio Video Interleave
File size : 617 MiB
Duration : 52mn 37s
Overall bit rate : 1 641 Kbps
Writing application : Lavf52.57.1
Video
ID : 0
Format : xvid
Codec ID : xvid
Duration : 52mn 37s
Bit rate : 1 500 Kbps
Width : 576 pixels
Height : 352 pixels
Display aspect ratio : 16:10
Frame rate : 25.000 fps
Bits/(Pixel*Frame) : 0.296
Stream size : 565 MiB (91%)
Audio
ID : 1
Format : MPEG Audio
Format version : Version 1
Format profile : Layer 3
Mode : Joint stereo
Mode extension : MS Stereo
Codec ID : 55
Codec ID/Hint : MP3
Duration : 52mn 36s
Bit rate mode : Constant
Bit rate : 128 Kbps
Channel(s) : 2 channels
Sampling rate : 44.1 KHz
Compression mode : Lossy
Stream size : 48.2 MiB (8%)
Alignment : Aligned on interleaves
Interleave, duration : 26 ms (0.65 video frame)








Сэмпл http:// СПАМ
У вас нет необходимых прав для просмотра вложений в этом сообщении.