Суперспособности животных: Экстремальные охотники / Animal Superpowers: Extreme Hunters (National Geographic) [2012, Документальный, SATRip]

Научно-популярные фильмы Национального географического общества
Торрент Сидеров Личеров Размер
torrent_4374222.torrent
0 0 561.24 МБ
Аватара пользователя
Солнышко
Сообщения: 22944
Зарегистрирован: 13 янв 2016, 22:10

Суперспособности животных: Экстремальные охотники / Animal Superpowers: Extreme Hunters (National Geographic) [2012, Документальный, SATRip]

Сообщение Солнышко » 23 мар 2018, 22:38

Суперспособности животных: Экстремальные охотники / Animal Superpowers: Extreme Hunters


Год выпуска: 2012
Страна: Канада
Жанр: Документальный
Продолжительность: 00:44:57
Перевод: Одноголосый закадровый
Русские субтитры: нет
Режиссер: National Geographic
Описание: Патрик Стюарт изучает невероятные способности восприятия у акулы-молота, питона, гремучей змеи и кашалота. Для более детального исследования сценаристы, с помощью компьютерной графики, создают виртуальные модели этих животных.
качество: SATRip
формат: AVI
видеокодек: DivX
аудиокодек: MP3
Видео: 704x400 (1.76:1), 25 fps, XviD build 50 ~1609 kbps avg, 0.23 bit/pixel
Аудио: 48 kHz, MPEG Layer 3, 2 ch, ~128.00 kbps avg
General
Complete name : C:\Documents and Settings\Mersicc\Мои документы\Мои видеозаписи\Extreme Hunters.avi
Format : AVI
Format/Info : Audio Video Interleave
File size : 561 MiB
Duration : 44mn 57s
Overall bit rate : 1 745 Kbps
Video
ID : 0
Format : MPEG-4 Visual
Format profile : Simple@L3
Format settings, BVOP : No
Format settings, QPel : No
Format settings, GMC : No warppoints
Format settings, Matrix : Default (H.263)
Codec ID : DX50
Codec ID/Hint : DivX 5
Duration : 44mn 57s
Bit rate : 1 600 Kbps
Width : 704 pixels
Height : 400 pixels
Display aspect ratio : 16:9
Frame rate : 25.000 fps
Color space : YUV
Chroma subsampling : 4:2:0
Bit depth : 8 bits
Scan type : Progressive
Compression mode : Lossy
Bits/(Pixel*Frame) : 0.227
Stream size : 515 MiB (92%)
Writing library : XviD 1.2.1 (UTC 2008-12-04)
Audio
ID : 1
Format : MPEG Audio
Format version : Version 1
Format profile : Layer 3
Mode : Joint stereo
Mode extension : MS Stereo
Codec ID : 55
Codec ID/Hint : MP3
Duration : 44mn 57s
Bit rate mode : Constant
Bit rate : 128 Kbps
Channel(s) : 2 channels
Sampling rate : 48.0 KHz
Compression mode : Lossy
Stream size : 41.2 MiB (7%)
Alignment : Aligned on interleaves
Interleave, duration : 24 ms (0.60 video frame)
Writing library : LAME3.98.2

У вас нет необходимых прав для просмотра вложений в этом сообщении.