Homespun - Blues-Roots Guitar: Fingerpicking & Slide From Delta to New Orleans Taught By Steve James [2017, Гитара, DVDR

Гитара, бас гитара, балалайка, скрипка, виолончель и т.д.
Торрент Сидеров Личеров Размер
torrent_5496339.torrent
0 0 547.75 МБ
Аватара пользователя
Stepan
Администратор
Сообщения: 52357
Зарегистрирован: 05 ноя 2011, 20:36

Homespun - Blues-Roots Guitar: Fingerpicking & Slide From Delta to New Orleans Taught By Steve James [2017, Гитара, DVDR

Сообщение Stepan » 23 мар 2018, 22:39

Blues-Roots Guitar: Fingerpicking & Slide From Delta to New Orleans

Страна: USA
Тематика: Гитара
Тип раздаваемого материала: Видеоурок
Продолжительность: 01:20:00
Год выпуска: 2017
Язык: Английский
Перевод: Отсутствует
Качество: DVDRip
Формат: MP4
Видео кодек: AVC
Аудио кодек: AAC
Видео: AVC, 720X480, 3:2, 770 kbps, 30 fps
Аудио: AAC, 160 kbps, 48 kHz, 2 ch
Steve James is known for his mastery of blues guitar styles, as well as his deep knowledge of the history of the great traditional players, from Piedmont to Delta. In this video tutorial series, he takes five pieces representative of different styles and teaches them in careful detail for the learning student.
Chapter 1 - Steve plays us a ditty then dives into Tuning, Picking, Chords and more.
Chapter 2 - In this video, Steve demonstrates how blues is a Harmony System, as well as a feeling. Steve gives valuable advice on how to understand the different scales and melodies.
Chapter 3 - Steve shows us the "12 Bar Blues", and then shows bar by bar how to play it, along with some variations.
Chapter 4 - In this video, Steve gets back to playing blues in the key of C, along with tips and tricks to help you along the way.
Chapter 5 - Steve busts out the Bottle Neck Slide Style guitar and hops in Open C Tuning.
Chapter 6 - In this video, Steve talks about open D tuning and helps you grasp the understanding of slide guitar technique in open tunings.
Chapter 7 - Steve shows a different open D tuning and shares chords and sliding techniques.
Chapter 8 - Steven demonstrates a song by Sam Mcgee, "A hot time in the old town tonight" on the Bottleneck guitar.

Код: Выделить всё

[b]Формат                                   : MPEG-4
Профиль формата                          : Base Media
Идентификатор кодека                     : isom (isom/iso2/avc1/mp41)
Общий поток                              : 951 Кбит/сек
Программа кодирования                    : Lavf56.25.101
[/b]Видео
Идентификатор                            : 1
Формат                                   : AVC
Формат/Информация                        : Advanced Video Codec
Профиль формата                          : Main@L4
Параметр CABAC формата                   : Да
Параметр ReFrames формата                : 4 кадра
Идентификатор кодека                     : avc1
Идентификатор кодека/Информация          : Advanced Video Coding
Битрейт                                  : 774 Кбит/сек
Ширина                                   : 720 пикселей
Высота                                   : 480 пикселей
Соотношение сторон                       : 3:2
Режим частоты кадров                     : Переменный
Частота кадров                           : 59,940 (59940/1000) кадров/сек
Минимальная частота кадров               : 29,970 кадров/сек
Максимальная частота кадров              : 59,960 кадров/сек
Цветовое пространство                    : YUV
Субдискретизация насыщенности            : 4:2:0
Битовая глубина                          : 8 бит
Тип развёртки                            : Прогрессивная
Бит/(Пиксели*Кадры)                      : 0.037
Размер потока                            : 65,3 Мбайт (81%)
Библиотека кодирования                   : x264 core 142 r2479 dd79a61
Настройки программы                      : cabac=1 / ref=1 / deblock=1:0:0 / analyse=0x1:0x111 / me=hex / subme=2 / psy=1 / psy_rd=1.00:0.00 / mixed_ref=0 / me_range=16 / chroma_me=1 / trellis=0 / 8x8dct=0 / cqm=0 / deadzone=21,11 / fast_pskip=1 / chroma_qp_offset=0 / threads=12 / lookahead_threads=3 / sliced_threads=0 / nr=0 / decimate=1 / interlaced=0 / bluray_compat=0 / constrained_intra=0 / bframes=3 / b_pyramid=2 / b_adapt=1 / b_bias=0 / direct=1 / weightb=1 / open_gop=0 / weightp=1 / keyint=600 / keyint_min=60 / scenecut=40 / intra_refresh=0 / rc_lookahead=10 / rc=2pass / mbtree=1 / bitrate=774 / ratetol=1.0 / qcomp=0.60 / qpmin=0 / qpmax=69 / qpstep=4 / cplxblur=20.0 / qblur=0.5 / vbv_maxrate=20000 / vbv_bufsize=25000 / nal_hrd=none / filler=0 / ip_ratio=1.40 / aq=1:1.00
Цветовой диапазон                        : Limited
Основные цвета                           : BT.601 NTSC
Характеристики трансфера                 : BT.709
Коэффициенты матрицы                     : BT.601
Аудио
Идентификатор                            : 2
Формат                                   : AAC
Формат/Информация                        : Advanced Audio Codec
Профиль формата                          : LC
Идентификатор кодека                     : 40
Вид битрейта                             : Постоянный
Битрейт                                  : 160 Кбит/сек
Каналы                                   : 2 канала
Расположение каналов                     : Front: L R
Частота                                  : 48,0 КГц
Частота кадров                           : 46,875 кадров/сек (1024 spf)
Метод сжатия                             : С потерями
Размер потока                            : 13,5 Мбайт (17%)
Язык                                     : English
Default                                  : Да
Alternate group                          : 1
У вас нет необходимых прав для просмотра вложений в этом сообщении.