Суперсооружения / Мегадробилка / N.G. Megastructures [2012, Документальный, SATRip]

Научно-популярные фильмы Национального географического общества
Торрент Сидеров Личеров Размер
torrent_4284578.torrent
0 0 753.78 МБ
Аватара пользователя
Солнышко
Сообщения: 22944
Зарегистрирован: 13 янв 2016, 22:10

Суперсооружения / Мегадробилка / N.G. Megastructures [2012, Документальный, SATRip]

Сообщение Солнышко » 23 мар 2018, 22:39

Суперсооружения / Мегадробилка / N.G. Megastructures
Год выпуска: 2012
Страна: США
Жанр: Документальный
Продолжительность: 00:44:57
Перевод: Профессиональный (одноголосый)
Описание: Ежедневно гигантские машины-монстры оживают, чтобы пожирать горы металлолома. Но что требуется для создания этих титанов индустрии?

Качество: SATRip
Формат: AVI
Видео кодек: XviD
Аудио кодек: MP3
Видео: 720x400 (1.80:1), 25 fps, XviD build 45 ~2202 kbps avg, 0.30 bit/pixel
Аудио: 48 kHz, MPEG Layer 3, 2 ch, ~128.00 kbps avg

Код: Выделить всё

Общее
Полное имя                       : C:\Documents and Settings\Администратор\Рабочий стол\Supersoorujeniya.Magadrobilka.2012.avi
Формат                           : AVI
Формат/Информация                : Audio Video Interleave
Размер файла                     : 754 Мбайт
Продолжительность                : 44 м.
Общий поток                      : 2343 Кбит/сек
Программа кодирования            : Lavf50.6.0
Видео
Идентификатор                    : 0
Формат                           : xvid
Идентификатор кодека             : xvid
Продолжительность                : 44 м.
Битрейт                          : 2202 Кбит/сек
Ширина                           : 720 пикс.
Высота                           : 400 пикс.
Соотношение сторон               : 16:9
Частота кадров                   : 25,000 кадр/сек
Бит/(Пиксели*Кадры)              : 0.306
Размер потока                    : 708 Мбайт (94%)
Аудио
Идентификатор                    : 1
Формат                           : MPEG Audio
Версия формата                   : Version 1
Профиль формата                  : Layer 3
Режим                            : Joint stereo
Расширение режима                : MS Stereo
Идентификатор кодека             : 55
Идентификатор кодека/Подсказка   : MP3
Продолжительность                : 44 м.
Вид битрейта                     : Постоянный
Битрейт                          : 128 Кбит/сек
Каналы                           : 2 канала
Частота                          : 48,0 КГц
Метод сжатия                     : С потерями
Размер потока                    : 41,2 Мбайт (5%)
Выравнивание                     : Соединение по промежуткам
Продолжительность промежутка     : 24  мс. (0,60 видеокадр)
Время предзагрузки промежутка    : 24 ms
Раздача группы:
Релиз: Rizik
У вас нет необходимых прав для просмотра вложений в этом сообщении.