National Geographic : В поисках гигантских обезьян / National Geographic : Search for the Great Apes [1975, Научно-популярный, DVDRip]

Научно-популярные фильмы Национального географического общества
Торрент Сидеров Личеров Размер
torrent_4513652.torrent
0 0 738.27 МБ
Аватара пользователя
Солнышко
Сообщения: 22944
Зарегистрирован: 13 янв 2016, 22:10

National Geographic : В поисках гигантских обезьян / National Geographic : Search for the Great Apes [1975, Научно-популярный, DVDRip]

Сообщение Солнышко » 23 мар 2018, 22:43

National Geographic В поисках гигантских обезьян / National Geographic Search for the Great Apes
Год выпуска: 1975
Страна: США
Жанр: Научно-популярный
Продолжительность: 00:48:20
Перевод: Одноголосый закадровый (Ю.Сербин)
Русские субтитры: нет
Описание: Рассказ о гиганских обезьянах-ГОРИЛЛАХ
качество: DVDRip
формат: AVI
Видео: Video: 640x480 (1.33:1), 25 fps, XviD build 50 ~1999 kbps avg, 0.26 bit/pixe
Аудио: Audio: 44.100 kHz, MPEG Layer 3, 2 ch, ~128.00 kbps avg

Код: Выделить всё

General
Complete name                            : H:\NG В поисках гиганских обезьян.avi
Format                                   : AVI
Format/Info                              : Audio Video Interleave
File size                                : 738 MiB
Duration                                 : 48mn 20s
Overall bit rate                         : 2 135 Kbps
Writing application                      : Lavf52.57.1
Video
ID                                       : 0
Format                                   : xvid
Codec ID                                 : xvid
Duration                                 : 48mn 20s
Bit rate                                 : 1 995 Kbps
Width                                    : 640 pixels
Height                                   : 480 pixels
Display aspect ratio                     : 4:3
Frame rate                               : 25.000 fps
Bits/(Pixel*Frame)                       : 0.260
Stream size                              : 690 MiB (93%)
Audio
ID                                       : 1
Format                                   : MPEG Audio
Format version                           : Version 1
Format profile                           : Layer 3
Mode                                     : Joint stereo
Mode extension                           : MS Stereo
Codec ID                                 : 55
Codec ID/Hint                            : MP3
Duration                                 : 48mn 20s
Bit rate mode                            : Constant
Bit rate                                 : 128 Kbps
Channel(s)                               : 2 channels
Sampling rate                            : 44.1 KHz
Compression mode                         : Lossy
Stream size                              : 44.3 MiB (6%)
Alignment                                : Aligned on interleaves
Interleave, duration                     : 26 ms (0.65 video frame)
Writing library                          : LAME3.98.2ЄЄЄЄЄЄЄЄЄЄ







Сэмпл http:// СПАМ
У вас нет необходимых прав для просмотра вложений в этом сообщении.