National Geographic: Пластики: корабль из бутылок / National Geographic: Plastiki: 12,000 Bottle Boat (Max Jourdan) [2010, Документальный, SATRip]

Научно-популярные фильмы Национального географического общества
Торрент Сидеров Личеров Размер
torrent_3664577.torrent
0 0 622.65 МБ
Аватара пользователя
Солнышко
Сообщения: 22944
Зарегистрирован: 13 янв 2016, 22:10

National Geographic: Пластики: корабль из бутылок / National Geographic: Plastiki: 12,000 Bottle Boat (Max Jourdan) [2010, Документальный, SATRip]

Сообщение Солнышко » 23 мар 2018, 22:43

National Geographic: Пластики: корабль из бутылок / National Geographic: Plastiki: 12,000 Bottle Boat

Год выпуска: 2010
Страна: США / National Geographic Channel
Жанр: Документальный
Продолжительность: 00:45:01
Перевод: Профессиональный (одноголосый), АРК-ТВ, Денис Некрасов
Русские субтитры: нет
Режиссер: Max Jourdan
Описание: Мало кому в голову придет переплыть Тихой океан, а уж тем более это сделать не совсем традиционным методом. У исследователя и эколога и искателя приключений Дэвид Де Ротшильд была сумасшедшая мечта - переплыть Тихий океан на судне из пластиковых бутылок, донести до мира своё экологическое послание. Это будет судно не схожее, ни с каким другим. Путешествие подвергнет суровым испытаниям и корабль, и его команду.
Доп. информация: http://en.wikipedia.org/wiki/Plastiki / http://natgeotv.com/ru/plastiki

Качество: SATRip
Формат: AVI
Видео кодек: XviD
Аудио кодек: MP3
Видео: 704x400 (1.76:1), 25 fps, XviD build 50 ~1800 kbps avg, 0.26 bit/pixel
Аудио: 48 kHz, MPEG Layer 3, 2 ch, ~128.00 kbps avg
Общее
Формат : AVI
Формат/Информация : Audio Video Interleave
Размер файла : 623 Мбайт
Продолжительность : 45 м.
Общий поток : 1933 Кбит/сек
Видео
Идентификатор : 0
Формат : MPEG-4 Visual
Профиль формата : Advanced Simple@L5
Параметр BVOP формата : 2
Параметр QPel формата : Нет
Параметр GMC формата : Без точки перехода
Параметр матрицы формата : Default (MPEG)
Идентификатор кодека : XVID
Идентификатор кодека/Подсказка : XviD
Продолжительность : 45 м.
Битрейт : 1800 Кбит/сек
Ширина : 704 пикс.
Высота : 400 пикс.
Соотношение сторон : 16:9
Частота кадров : 25,000 кадр/сек
Цветовое пространство : YUV
Подвыборка цветности : 4:2:0
Битовая глубина : 8 бит
Тип развёртки : Прогрессивная
Метод сжатия : С потерями
Бит/(Пиксели*Кадры) : 0.256
Размер потока : 580 Мбайт (93%)
Библиотека кодирования : XviD 1.2.1 (UTC 2008-12-04)
Аудио
Идентификатор : 1
Формат : MPEG Audio
Версия формата : Version 1
Профиль формата : Layer 3
Режим : Joint stereo
Расширение режима : MS Stereo
Идентификатор кодека : 55
Идентификатор кодека/Подсказка : MP3
Продолжительность : 45 м.
Вид битрейта : Постоянный
Битрейт : 128 Кбит/сек
Каналы : 2 канала
Частота : 48,0 КГц
Метод сжатия : С потерями
Размер потока : 41,2 Мбайт (7%)
Выравнивание : Разделение по промежуткам
Продолжительность промежутка : 455 мс. (11,37 видеокадров)
Время предзагрузки промежутка : 200 ms
Заголовок : plastiki_sail_it_NAT GEO (rus)_07-18_02-55-00_ Tc0 L2 2ch 48 192 DELAY 0ms
Библиотека кодирования : LAME3.98r
Настройки программы : -m j -V 4 -q 2 -lowpass 17 -b 128
У вас нет необходимых прав для просмотра вложений в этом сообщении.