Удивительное рядом (Томас Старк Холланд, Джилл Камбербэтч) / National Geographic: Blow Your Mind (Thomas Stark Holland, Jill Cumberbatch) [2013, Научно-популярный, PDTVRip]

Научно-популярные фильмы Национального географического общества
Торрент Сидеров Личеров Размер
torrent_4579419.torrent
0 0 662.26 МБ
Аватара пользователя
Солнышко
Сообщения: 22944
Зарегистрирован: 13 янв 2016, 22:10

Удивительное рядом (Томас Старк Холланд, Джилл Камбербэтч) / National Geographic: Blow Your Mind (Thomas Stark Holland, Jill Cumberbatch) [2013, Научно-популярный, PDTVRip]

Сообщение Солнышко » 23 мар 2018, 22:43

Удивительное рядом / National Geographic: Blow Your Mind
Год выпуска: 2013
Страна: США
Жанр: Научно-популярный
Продолжительность: 00:44:53
Перевод: Одноголосый закадровый
Режиссер: Томас Старк Холланд, Джилл Камбербэтч / Thomas Stark Holland, Jill Cumberbatch
Ведущий: Роберт Ллевеллин / Robert Llewellyn
Описание: Русский перевод названия как обычно неудачен и не отражает содержания фильма. Программа демонстрирует некоторые интересные особенности работы мозга. Создана в том же ключе, что и сериал Игры разума / Brain Games . Фильм показывает, как спровоцировать состояние алкогольного опьянения без алкоголя, как заставить человека потерять равновесие слегка меняя внешнюю обстановку, насколько легко обмануть профессиональных сомелье, в чем вы быстрее Усэйна Болта и т.д.
Доп. информация: Blow Your Mind is the owner's manual to the most complex machine ever developed. Your Brain. You might think you're aware of what your brain's up to, but the truth is we're all just passengers along for the ride. In this fascinating and hilarious show, Robert Llewellyn and neuroscience expert, Bruce Hood, use mind-melting real-life experiments, hidden camera stunts, try- at-home tests and top notch animations to uncover the storm of unconscious processes that make up the human mind. On Blow Your Mind the whole world's a lab and you, the unsuspecting members of the public, are the perfect test subjects.
Качество: PDTVRip
Формат: MP4
Видео: AVC, 832x468 pixels, 16:9, 1800 Кбит/сек, 25.000 fps
Аудио 1: MPEG Audio, 128 Kbps, 44,1 KHz, 2 channels (русский);
Аудио 2: AAC, 128 Kbps, 48,0 KHz, 2 channels (английский)
Сэмпл: [url=http:// СПАМ
Общее
Полное имя : D:\National.Geographic.Blow.Your.Mind.PDTV.x264.AAC.MVGroup.org.mp4
Формат : MPEG-4
Профиль формата : Base Media
Идентификатор кодека : isom
Размер файла : 662 Мбайт
Продолжительность : 44 м.
Режим общего битрейта : Переменный
Общий поток : 2059 Кбит/сек
Дата кодирования : UTC 2013-11-02 18:09:41
Дата пометки : UTC 2013-11-02 18:09:41
Видео
Идентификатор : 1
Формат : AVC
Формат/Информация : Advanced Video Codec
Профиль формата : High@L4.0
Параметр CABAC формата : Да
Параметр ReFrames формата : 4 кадра
Идентификатор кодека : avc1
Идентификатор кодека/Информация : Advanced Video Coding
Продолжительность : 44 м.
Битрейт : 1800 Кбит/сек
Максимальный битрейт : 6345 Кбит/сек
Ширина : 832 пикселя
Высота : 468 пикселей
Соотношение сторон : 16:9
Режим частоты кадров : Постоянный
Частота кадров : 25,000 кадров/сек
Цветовое пространство : YUV
Субдискретизация насыщенности : 4:2:0
Битовая глубина : 8 бит
Тип развёртки : Прогрессивная
Бит/(Пиксели*Кадры) : 0.185
Размер потока : 578 Мбайт (87%)
Библиотека кодирования : x264 core 130 r2273 b3065e6
Настройки программы : cabac=1 / ref=1 / deblock=1:0:0 / analyse=0x3:0x113 / me=hex / subme=2 / psy=1 / psy_rd=1.00:0.00 / mixed_ref=0 / me_range=16 / chroma_me=1 / trellis=0 / 8x8dct=1 / cqm=0 / deadzone=21,11 / fast_pskip=1 / chroma_qp_offset=0 / threads=3 / lookahead_threads=1 / sliced_threads=0 / nr=0 / decimate=1 / interlaced=0 / bluray_compat=0 / constrained_intra=0 / bframes=3 / b_pyramid=2 / b_adapt=1 / b_bias=0 / direct=1 / weightb=1 / open_gop=0 / weightp=1 / keyint=250 / keyint_min=25 / scenecut=40 / intra_refresh=0 / rc_lookahead=10 / rc=abr / mbtree=1 / bitrate=1800 / ratetol=1.0 / qcomp=0.60 / qpmin=0 / qpmax=69 / qpstep=4 / vbv_maxrate=25000 / vbv_bufsize=31250 / nal_hrd=none / ip_ratio=1.40 / aq=1:1.00
Дата кодирования : UTC 2013-07-27 16:58:36
Дата пометки : UTC 2013-11-02 18:11:07
Основные цвета : BT.601 PAL
Характеристики трансфера : BT.709
Коэффициенты матрицы : BT.601
Аудио #1
Идентификатор : 2
Формат : MPEG Audio
Версия формата : Version 1
Профиль формата : Layer 3
Режим : Joint stereo
Расширение режима : MS Stereo
Идентификатор кодека : 6B
Продолжительность : 44 м.
Вид битрейта : Постоянный
Битрейт : 128 Кбит/сек
Максимальный битрейт : 134 Кбит/сек
Каналы : 2 канала
Частота : 44,1 КГц
Метод сжатия : С потерями
Задержка видео : 80 мс.
Размер потока : 41,2 Мбайт (6%)
Язык : Russian
Дата кодирования : UTC 2013-11-02 18:10:44
Дата пометки : UTC 2013-11-02 18:11:07
Аудио #2
Идентификатор : 3
Формат : AAC
Формат/Информация : Advanced Audio Codec
Профиль формата : LC
Идентификатор кодека : 40
Продолжительность : 44 м.
Вид битрейта : Переменный
Битрейт : 128 Кбит/сек
Максимальный битрейт : 164 Кбит/сек
Каналы : 2 канала
Расположение каналов : Front: L R
Частота : 48,0 КГц
Метод сжатия : С потерями
Задержка видео : 80 мс.
Размер потока : 41,1 Мбайт (6%)
Язык : English
Дата кодирования : UTC 2013-11-02 18:10:48
Дата пометки : UTC 2013-11-02 18:11:07
У вас нет необходимых прав для просмотра вложений в этом сообщении.