Суперсооружения: Новая ж/д магистраль в Англии / Megastructures: UK Super Train [2010, Документальный, HDTVRip] National

Научно-популярные фильмы Национального географического общества
Торрент Сидеров Личеров Размер
torrent_4636952.torrent
0 0 746.87 МБ
Аватара пользователя
Солнышко
Сообщения: 22944
Зарегистрирован: 13 янв 2016, 22:10

Суперсооружения: Новая ж/д магистраль в Англии / Megastructures: UK Super Train [2010, Документальный, HDTVRip] National

Сообщение Солнышко » 23 мар 2018, 22:45

Суперсооружения: Новая ж/д магистраль в Англии
Год выпуска: 2010
Страна: США
Жанр: Документальный
Продолжительность: 00:45:01
Перевод: Профессиональный (одноголосый)
Русские субтитры: нет
Оригинальная аудиодорожка: английский
Описание: Знакомьтесь: высокоскоростная линия №1 - самый дорогостоящий и самый крупный строительный проект в Великобритании!
Сэмпл: http://multi-up.com/938483
Kачество: HDTVRip
Формат: AVI
Видео: XVID, 720x400, 2048kbps, 25.00fps
Аудио #1: MP3, 128kbps, 48kHz, stereo, RUS
Аудио #2: MP3, 128kbps, 48kHz, stereo, ENG
General
Complete name : E:\!torents\Megastructures - UK Super Train.avi
Format : AVI
Format/Info : Audio Video Interleave
File size : 747 MiB
Duration : 45mn 1s
Overall bit rate : 2 320 Kbps
Writing application : VirtualDubMod 1.5.10.2 (build 2540/release)
Writing library : VirtualDubMod build 2540/release
Copyright : fozzy412
Video
ID : 0
Format : MPEG-4 Visual
Format profile : Advanced Simple@L5
Format settings, BVOP : 1
Format settings, QPel : No
Format settings, GMC : No warppoints
Format settings, Matrix : Default (MPEG)
Codec ID : DX50
Codec ID/Hint : DivX 5
Duration : 45mn 1s
Bit rate : 2 049 Kbps
Width : 720 pixels
Height : 400 pixels
Display aspect ratio : 16:9
Frame rate : 25.000 fps
Color space : YUV
Chroma subsampling : 4:2:0
Bit depth : 8 bits
Scan type : Progressive
Compression mode : Lossy
Bits/(Pixel*Frame) : 0.285
Stream size : 660 MiB (88%)
Writing library : XviD 65
Audio #1
ID : 1
Format : MPEG Audio
Format version : Version 1
Format profile : Layer 3
Mode : Joint stereo
Mode extension : MS Stereo
Codec ID : 55
Codec ID/Hint : MP3
Duration : 45mn 0s
Bit rate mode : Constant
Bit rate : 128 Kbps
Channel(s) : 2 channels
Sampling rate : 48.0 KHz
Compression mode : Lossy
Stream size : 41.2 MiB (6%)
Alignment : Aligned on interleaves
Interleave, duration : 40 ms (1.00 video frame)
Interleave, preload duration : 504 ms
Title : Русский
Audio #2
ID : 2
Format : MPEG Audio
Format version : Version 1
Format profile : Layer 3
Mode : Joint stereo
Mode extension : MS Stereo
Codec ID : 55
Codec ID/Hint : MP3
Duration : 45mn 1s
Bit rate mode : Constant
Bit rate : 128 Kbps
Channel(s) : 2 channels
Sampling rate : 48.0 KHz
Compression mode : Lossy
Stream size : 41.2 MiB (6%)
Alignment : Aligned on interleaves
Interleave, duration : 40 ms (1.00 video frame)
Interleave, preload duration : 504 ms
Title : English
У вас нет необходимых прав для просмотра вложений в этом сообщении.