Столкновение континентов / Clash of the Continents / Scontro Di Continenti (2 фильма из 2) (Майк Ибеджи / Mike Ibeji) [2

Научно-популярные фильмы Национального географического общества
Торрент Сидеров Личеров Размер
torrent_3885599.torrent
0 0 1.37 ГБ
Аватара пользователя
Солнышко
Сообщения: 22944
Зарегистрирован: 13 янв 2016, 22:10

Столкновение континентов / Clash of the Continents / Scontro Di Continenti (2 фильма из 2) (Майк Ибеджи / Mike Ibeji) [2

Сообщение Солнышко » 23 мар 2018, 22:45

Столкновение континентов / Clash of the Continents / Scontro Di Continenti
Год выпуска: 2010
Страна: Новая Зеландия (Natural History New Zealand Ltd), США (NGC Network International, LLC and NGC Network US, LLC)
Жанр: Документальный
Продолжительность: 2 x ~ 00:45:11
Перевод: Профессиональный (одноголосый)(АРК-ТВ Александр Гаврилин)
Русские субтитры: нет
Режиссер: Майк Ибеджи / Mike Ibeji
Описание: Представьте, что вы астронавт, который в далеком будущем отважно отправился в космическое путешествие на край Вселенной. И вот 250 млн. лет спустя, вы возвращаетесь назад. Все, что вы помните, исчезло. Пройдет ли наша планета полный цикл перемен, как предсказывает большинство ученых? Сложится ли вся суша воедино, чтобы образовать один гигантский континент? Возможно, непреодолимые силы геологии, уже стерли с лица Земли все присутствие человека - при помощи воды, ветра и льда. Возможно от нас не останется ничего, кроме окаменелых останков. 250 млн. лет спустя, после нашего расцвета... какие геологические свидетельства смогут доказать, что мы когда-то жили?
1. Конец Рая / End of Eden / La Fine Dell Eden. Земля... 250 млн. лет спустя. Космический странник возвращается домой. Пока он находился в своем корабле, перемещаясь со скоростью близкой к скорости света, относительность сотворила свои известные чудеса. Для него прошло всего несколько десятилетий, но снаружи изменилась вся Вселенная. За то время, пока он отсутствовал, Земля значительно постарела, пейзаж, представший перед его глазами, ему незнаком... Ему потребуется помощь всех технических приспособлений корабля, чтобы понять, что здесь случилось.
2. Судьба человечества / Fate of Man (End of Man, Descent into Hell) / Il Destino Dell Uomo. Земля... 250 млн. лет спустя. Одинокий космический странник спускается на планету. Он проделал долгий путь, чтобы сюда попасть, и теперь опасается, что может остаться один. Все свидетельства и памятники его прошлого разрушены, унесены ветрами времен. И тогда он поймет, что ад спустился на Землю...
Доп. информация: Релиз группы
Сведение дорожек и автор постера- nyctalus
Качество: BDRip (Источник - Blu Ray 1080i)
Формат: AVI
Видео кодек: XviD
Аудио кодек: AC3
Видео: XviD, 1577 Кбит/с, 704x400, 25.000 fps
Аудио: Русский (AC3, 2 ch, 128 Кбит/с, 48 kHz), English (AC3, 6 ch, 448 Кбит/с, 48 kHz)

General
Complete name : Stolknovenie.kontinentov.01.Konez.raja.2010.Xvid.BDRip_DaVinci.avi
Format : AVI
Format/Info : Audio Video Interleave
File size : 701 MiB
Duration : 45mn 11s
Overall bit rate : 2 168 Kbps
Movie name : Il_Futra_De_La_Terra(1)
Encoded by : Encoded by Nyctalus
Genre : Documentary
Law rating : Link to R.G.DaVinci
Writing application : VirtualDubMod
Original source form : Digital Video
Original source form/Name : Serial
Copyright : R.G.DaVinci
Video #0
ID : 0
Format : MPEG-4 Visual
Format profile : Advanced Simple@L5
Format settings, BVOP : 1
Format settings, QPel : No
Format settings, GMC : No warppoints
Format settings, Matrix : Custom
Codec ID : XVID
Codec ID/Hint : XviD
Duration : 45mn 11s
Bit rate : 1 577 Kbps
Width : 704 pixels
Height : 400 pixels
Display aspect ratio : 16:9
Frame rate : 25.000 fps
Color space : YUV
Chroma subsampling : 4:2:0
Bit depth : 8 bits
Scan type : Progressive
Compression mode : Lossy
Bits/(Pixel*Frame) : 0.224
Stream size : 510 MiB (73%)
Writing library : XviD 64
Audio #1
ID : 1
Format : AC-3
Format/Info : Audio Coding 3
Mode extension : CM (complete main)
Codec ID : 2000
Duration : 45mn 10s
Bit rate mode : Constant
Bit rate : 128 Kbps
Channel(s) : 2 channels
Channel positions : Front: L R
Sampling rate : 48.0 KHz
Bit depth : 16 bits
Compression mode : Lossy
Stream size : 41.4 MiB (6%)
Alignment : Split accross interleaves
Interleave, duration : 40 ms (1.00 video frame)
Interleave, preload duration : 500 ms
Language : un
Audio #2
ID : 2
Format : AC-3
Format/Info : Audio Coding 3
Mode extension : CM (complete main)
Codec ID : 2000
Duration : 45mn 11s
Bit rate mode : Constant
Bit rate : 448 Kbps
Channel(s) : 6 channels
Channel positions : Front: L C R, Side: L R, LFE
Sampling rate : 48.0 KHz
Bit depth : 16 bits
Compression mode : Lossy
Stream size : 145 MiB (21%)
Alignment : Split accross interleaves
Interleave, duration : 40 ms (1.00 video frame)
Interleave, preload duration : 500 ms
У вас нет необходимых прав для просмотра вложений в этом сообщении.