Американская колония: Знакомство с гуттеритами ( У нас не секта ) / American Colony: Meet the Hutterites ( We Are Not a

Научно-популярные фильмы Национального географического общества
Торрент Сидеров Личеров Размер
torrent_4398555.torrent
0 0 639.47 МБ
Аватара пользователя
Солнышко
Сообщения: 22944
Зарегистрирован: 13 янв 2016, 22:10

Американская колония: Знакомство с гуттеритами ( У нас не секта ) / American Colony: Meet the Hutterites ( We Are Not a

Сообщение Солнышко » 23 мар 2018, 22:46

Американская колония: Знакомство с гуттеритами ( У нас не секта )


Оригинальное название: American Colony: Meet the Hutterites ( We Are Not a Cult )
Год выпуска: 2012
Страна: США
Жанр: документальный
Продолжительность: ~ 00:45:29
Перевод: Профессиональный (одноголосый, закадровый) [АРК-ТВ, Александр Гаврилин]
В ролях: Anthony Hofer, Bertha Hofer, Carver Hofer, Claudia Hofer, Toby Hofer, Wesley Hofer
Описание: Уэсли пытается преодолеть давние стереотипы гуттеритов, а Клаудиа думает о поступлении в колледж и уходе из общины насовсем

Сэмпл: http://multi-up.com/849486
Качество видео: SATRip
Формат: AVI
Видео кодек: XviD
Аудио кодек: MP3
Видео: 704x400 (16:9), 25 fps, XviD MPEG-4 ~ 1763 Kbps
Аудио: 48 kHz, MPEG Layer 3, 2ch, ~ 192 Kbps

Код: Выделить всё

Общее
Полное имя                               : American.Colony.Meet.The.Hutterites.We.Are.Not.A.Cult.2012.SATRip.by.Slipknot_cooler.avi
Формат                                   : AVI
Формат/Информация                        : Audio Video Interleave
Размер файла                             : 639 Мбайт
Продолжительность                        : 45 м.
Общий поток                              : 1965 Кбит/сек
Программа кодирования                    : VirtualDubModRus 1.5.10.2 (build 2540/release)
Библиотека кодирования                   : VirtualDubMod build 2540/release
Видео
Идентификатор                            : 0
Формат                                   : MPEG-4 Visual
Профиль формата                          : Advanced Simple@L5
Параметр BVOP формата                    : 2
Параметр QPel формата                    : Нет
Параметр GMC формата                     : Без точки перехода
Параметр матрицы формата                 : Default (H.263)
Идентификатор кодека                     : XVID
Идентификатор кодека/Подсказка           : XviD
Продолжительность                        : 45 м.
Битрейт                                  : 1763 Кбит/сек
Ширина                                   : 704 пикселя
Высота                                   : 400 пикселей
Соотношение сторон                       : 16:9
Частота кадров                           : 25,000 кадров/сек
Цветовое пространство                    : YUV
Субдискретизация насыщенности            : 4:2:0
Битовая глубина                          : 8 бит
Тип развёртки                            : Прогрессивная
Метод сжатия                             : С потерями
Бит/(Пиксели*Кадры)                      : 0.250
Размер потока                            : 574 Мбайт (90%)
Библиотека кодирования                   : XviD 1.2.1 (UTC 2008-12-04)
Аудио
Идентификатор                            : 1
Формат                                   : MPEG Audio
Версия формата                           : Version 1
Профиль формата                          : Layer 3
Идентификатор кодека                     : 55
Идентификатор кодека/Подсказка           : MP3
Продолжительность                        : 45 м.
Вид битрейта                             : Постоянный
Битрейт                                  : 192 Кбит/сек
Каналы                                   : 2 канала
Частота                                  : 48,0 КГц
Метод сжатия                             : С потерями
Размер потока                            : 62,5 Мбайт (10%)
Выравнивание                             : Соединение по промежуткам
Продолжительность промежутка             : 40  мс. (1,00 видеокадр)
Время предзагрузки промежутка            : 504  мс.
Библиотека кодирования                   : LAME3.99.5

У вас нет необходимых прав для просмотра вложений в этом сообщении.