Потерянные сокровища Америки: Новый Орлеан / America`s lost treasures: New Orleans [2012, Документальный, SATRip]

Научно-популярные фильмы Национального географического общества
Торрент Сидеров Личеров Размер
torrent_4292864.torrent
0 0 607.88 МБ
Аватара пользователя
Солнышко
Сообщения: 22944
Зарегистрирован: 13 янв 2016, 22:10

Потерянные сокровища Америки: Новый Орлеан / America`s lost treasures: New Orleans [2012, Документальный, SATRip]

Сообщение Солнышко » 23 мар 2018, 22:46

Потерянные сокровища Америки: Новый Орлеан / America`s lost treasures: New Orleans
Год выпуска: 2012
Страна: США
Жанр: Документальный
Продолжительность: 00:44:57
Перевод: Профессиональный (одноголосый)
Описание: По всей Америке, в подвалах и сараях, чердаках и во дворах, остались следы нашей национальной истории. Объекты с неожиданным и невероятным значением реальные истории только и ждут, чтобы быть раскрыты. А теперь National Geographic Channel отправился на поиски, чтобы сделать это! В нашем новом 10 серийном блоке, Америка Потерянные сокровища, мы идем в города по всей Америке в поисках исторических объектов с неожиданным значением - и мы хотим, чтобы вы были частью шоу! У вас есть ружье гражданской войны? Письма и документы из отцов-основателей? Древние индейские артефакты, антикварные музыкальные инструменты, или поп-культуры коллекционирования? Если у вас есть ценные реликвии семьи, или найти объект, с подключением к истории и большую историю позади него, ваш артефакт может иметь право на $ 10.000 премии и включение в будущем National Geographic экспонат.
Качество: SATRip
Формат: AVI
Видео кодек: XviD
Аудио кодек: MP3
Видео: XviD MPEG-4, 1748 Кбит/сек, 720 x 400 (1.760) at 25.000 fps
Аудио: 48 kHz, MPEG Layer 3, 2 ch, ~128.00 kbps avg

Код: Выделить всё

Общее
Полное имя                       : E:\Downloads\55\Americas.lost.treasures-New.Orleans.(2012).avi
Формат                           : AVI
Формат/Информация                : Audio Video Interleave
Размер файла                     : 608 Мбайт
Продолжительность                : 44 м.
Общий поток                      : 1889 Кбит/сек
Название фильма                  : rip by Roumek & BigFANGroup
Библиотека кодирования           : TMPGEnc 4.0 XPress Version. 4.7.7.307
Видео
Идентификатор                    : 0
Формат                           : MPEG-4 Visual
Профиль формата                  : Advanced Simple@L5
Параметр BVOP формата            : 2
Параметр QPel формата            : Нет
Параметр GMC формата             : Без точки перехода
Параметр матрицы формата         : Default (H.263)
Режим смешивания                 : Сжатый битовый поток
Идентификатор кодека             : XVID
Идентификатор кодека/Подсказка   : XviD
Продолжительность                : 44 м.
Битрейт                          : 1748 Кбит/сек
Ширина                           : 720 пикс.
Высота                           : 400 пикс.
Соотношение сторон               : 16:9
Частота кадров                   : 25,000 кадр/сек
Цветовое пространство            : YUV
Подвыборка цветности             : 4:2:0
Битовая глубина                  : 8 бит
Тип развёртки                    : Прогрессивная
Метод сжатия                     : С потерями
Бит/(Пиксели*Кадры)              : 0.243
Размер потока                    : 563 Мбайт (93%)
Библиотека кодирования           : XviD 1.2.1 (UTC 2008-12-04)
Аудио
Идентификатор                    : 1
Формат                           : MPEG Audio
Версия формата                   : Version 1
Профиль формата                  : Layer 3
Режим                            : Joint stereo
Идентификатор кодека             : 55
Идентификатор кодека/Подсказка   : MP3
Продолжительность                : 44 м.
Вид битрейта                     : Постоянный
Битрейт                          : 128 Кбит/сек
Каналы                           : 2 канала
Частота                          : 48,0 КГц
Метод сжатия                     : С потерями
Размер потока                    : 41,2 Мбайт (7%)
Выравнивание                     : Соединение по промежуткам
Продолжительность промежутка     : 40  мс. (1,00 видеокадр)
Время предзагрузки промежутка    : 384 ms
Раздача группы:
Релиз: Roumek & Shel
У вас нет необходимых прав для просмотра вложений в этом сообщении.