Homespun - Arpeggio Power! - A Systematic Approach to Conquering the Guitar Fretboard Taught By Paul Mehling [2017, Гитара, DVDRip, PDF, ENG] (Видеоурок)

Гитара, бас гитара, балалайка, скрипка, виолончель и т.д.
Торрент Сидеров Личеров Размер
torrent_5496314.torrent
0 0 586.95 МБ
Аватара пользователя
Stepan
Администратор
Сообщения: 52267
Зарегистрирован: 05 ноя 2011, 20:36

Homespun - Arpeggio Power! - A Systematic Approach to Conquering the Guitar Fretboard Taught By Paul Mehling [2017, Гитара, DVDRip, PDF, ENG] (Видеоурок)

Сообщение Stepan » 24 мар 2018, 09:18

Arpeggio Power! - A Systematic Approach to Conquering the Guitar Fretboard

Страна: USA
Тематика: Гитара
Тип раздаваемого материала: Видеоурок
Продолжительность: 01:10:00
Год выпуска: 2017
Язык: Английский
Перевод: Отсутствует
Качество: DVDRip
Формат: MP4
Видео кодек: AVC
Аудио кодек: AAC
Видео: AVC, 880X496, 16:9, 900 kbps, 30 fps
Аудио: AAC, 256 kbps, 48 kHz, 2 ch
Arpeggios (chords played as individual notes) are an indispensable component of music and can become an invaluable tool in your musical bag of tricks. Paul Mehling has methodically created a program of drills and exercises that “connect the dots,” offering a disciplined approach to practicing for guaranteed results.
Chapter 1 - Paul starts off by tuning, and talking about Arpeggios, and a little bit about the rest of the series.
Chapter 2 - Paul continues more on reaching different places on the neck, and how to apporach arpeggios.
Chapter 3 - In this video, Paul talks about Major 6th Arpeggios and how they're played.
Chapter 4 - Continuing with Arpeggios, Paul brings in the Minor 6th and shows you how to play them.
Chapter 5 - Paul shows you the Dominant 7th Arpeggio, and relates it to what you've learned so far.
Chapter 6 - Moving forward, Paul talks about the Major 7th arpeggio, and how you can get there from the last arpeggios you've learned in previous videos.
Chapter 7 - This video is all about Minor 7th Apreggios, Paul walks you through the different parts necessary to understand it all.
Chapter 8 - Moving forward, Paul gets into Diminished Arpeggios, and what they all contain.
Chapter 9 - Paul talks about E Minor 9, something related to the school of gypsy jazz guitar playing. Paul then talks about some tips and hints that will help you along your way with Arpeggios.
Chapter 10 - Paul introduces Adam who will be playing some accompaniment guitar, then he talks about Chords and Arpeggios together. Finally, Paul wraps things up with one final lesson, and talks about the importance of Arpeggios before a few final words before playing one last tune.

Код: Выделить всё

[b]Формат                                   : MPEG-4
Профиль формата                          : Base Media
Идентификатор кодека                     : isom (isom/iso2/avc1/mp41)
Общий поток                              : 1176 Кбит/сек
Программа кодирования                    : Lavf56.36.100
[/b]Видео
Идентификатор                            : 1
Формат                                   : AVC
Формат/Информация                        : Advanced Video Codec
Профиль формата                          : Main@L4
Параметр CABAC формата                   : Да
Параметр ReFrames формата                : 4 кадра
Идентификатор кодека                     : avc1
Идентификатор кодека/Информация          : Advanced Video Coding
Битрейт                                  : 903 Кбит/сек
Ширина                                   : 880 пикселей
Высота                                   : 496 пикселей
Соотношение сторон                       : 16:9
Режим частоты кадров                     : Переменный
Частота кадров                           : 59,940 (59940/1000) кадров/сек
Минимальная частота кадров               : 29,970 кадров/сек
Максимальная частота кадров              : 59,960 кадров/сек
Цветовое пространство                    : YUV
Субдискретизация насыщенности            : 4:2:0
Битовая глубина                          : 8 бит
Тип развёртки                            : Прогрессивная
Бит/(Пиксели*Кадры)                      : 0.035
Размер потока                            : 109 Мбайт (77%)
Библиотека кодирования                   : x264 core 142 r2479 dd79a61
Настройки программы                      : cabac=1 / ref=1 / deblock=1:0:0 / analyse=0x1:0x111 / me=hex / subme=2 / psy=1 / psy_rd=1.00:0.00 / mixed_ref=0 / me_range=16 / chroma_me=1 / trellis=0 / 8x8dct=0 / cqm=0 / deadzone=21,11 / fast_pskip=1 / chroma_qp_offset=0 / threads=12 / lookahead_threads=3 / sliced_threads=0 / nr=0 / decimate=1 / interlaced=0 / bluray_compat=0 / constrained_intra=0 / bframes=3 / b_pyramid=2 / b_adapt=1 / b_bias=0 / direct=1 / weightb=1 / open_gop=0 / weightp=1 / keyint=600 / keyint_min=60 / scenecut=40 / intra_refresh=0 / rc_lookahead=10 / rc=2pass / mbtree=1 / bitrate=903 / ratetol=1.0 / qcomp=0.60 / qpmin=0 / qpmax=69 / qpstep=4 / cplxblur=20.0 / qblur=0.5 / vbv_maxrate=20000 / vbv_bufsize=25000 / nal_hrd=none / filler=0 / ip_ratio=1.40 / aq=1:1.00
Цветовой диапазон                        : Limited
Основные цвета                           : BT.601 NTSC
Характеристики трансфера                 : BT.709
Коэффициенты матрицы                     : BT.601
Аудио
Идентификатор                            : 2
Формат                                   : AAC
Формат/Информация                        : Advanced Audio Codec
Профиль формата                          : LC
Идентификатор кодека                     : 40
Вид битрейта                             : Постоянный
Битрейт                                  : 256 Кбит/сек
Каналы                                   : 2 канала
Расположение каналов                     : Front: L R
Частота                                  : 48,0 КГц
Частота кадров                           : 46,875 кадров/сек (1024 spf)
Метод сжатия                             : С потерями
Размер потока                            : 31,0 Мбайт (22%)
Язык                                     : English
Default                                  : Да
Alternate group                          : 1
У вас нет необходимых прав для просмотра вложений в этом сообщении.