Путешествие по Ирландии с Саймоном Ривом / Ирландия / Ireland with Simon Reeve (Саймон Рив / Simon Reeve) (1-2 серии из 2) [2015, Великобритания, путешествия, образовательный фильм, HDTVRip-AVC] VO (LetEatBee)

Познавательные материалы о странах мира
Торрент Сидеров Личеров Размер
torrent_5174738.torrent
0 0 1.39 ГБ
Аватара пользователя
Солнышко
Сообщения: 22944
Зарегистрирован: 13 янв 2016, 22:10

Путешествие по Ирландии с Саймоном Ривом / Ирландия / Ireland with Simon Reeve (Саймон Рив / Simon Reeve) (1-2 серии из 2) [2015, Великобритания, путешествия, образовательный фильм, HDTVRip-AVC] VO (LetEatBee)

Сообщение Солнышко » 26 мар 2018, 14:13

Путешествие по Ирландии с Саймоном Ривом / Ирландия / Ireland with Simon Reeve (Саймон Рив / Simon Reeve), выпуски 1-2 из 2.
UPD 9.03.2016 Просьба перекачать торрент. Причина - улучшил синхронизацию дорожки перевода во второй серии.
Страна: Великобритания
Жанр: путешествия, образовательный фильм
Год выпуска: 22 ноября 2015 года
Продолжительность: 00:59:13 и 00:59:11
Перевод: Одноголосый закадровый LetEatBee по оригинальным субтитрам Михаила Васильева
Субтитры: нет
Режиссер: Саймон Рив / Simon Reeve
Телеканал: BBC
Описание: Познавательный, немного развлекательный двухсерийный фильм канала BBC о Ирландии. Журналист Саймон Рив путешествует по острову, разделенному между двумя странами. Он посещает Северную Ирландию, входящую в состав Великобритании; проезжает вдоль восточного и западного побережья Ирландской Республики; осматривает известные достопримечательности и заглядывает в места, куда не ступала нога туриста; встречается с интересными людьми, рассказывающими о прошлом острова и размышляющими над текущей ситуацией по обе стороны границы.
Значительную часть экранного времени занимают панорамные виды роскошных ирландских пейзажей.
Сведения исторического характера даются на базовом уровне.
Рассказывая о нынешней ситуации на острове, автор делает упор на продолжающийся конфликт между католиками и протестантами в Северной Ирландии, растущий национализм в Республике, уделяет внимание экономической ситуации, туризму и традиционно сильной роли христианства в регионе.
Дополнительная информация: премьера состоялась 22 ноября 2015 года.
1 серия
все началось с англо-норманнов
Ирландия с высоты птичьего полета
визит на органическую ферму
посещение бесплатной столовой для малоимущих
мемориал жертвам «картофельного голода»
«Праздник картофеля» в городе Дингл
встреча со специалистом по ирландскому фольклору
серфинг в Ирландии
Кро-Патрик — священная гора Ирландии
Северная Ирландия, Лондондерри.
2 серия
«Дорога гигантов»
остров Ратлин с населением 123 человека
визит в район, где снимали «Игры престолов»
Белфаст — город, разделенный между католиками и протестантами
Курсы ирландского языка
Дроэда — город, который помнит Кромвеля
Дублин готовится праздновать столетие Пасхального восстания 1916 года
легализация однополых браков в Ирландии
что значит «быть ирландцем»?
заповедник Уиклоу
Сэмпл: https://yadi.sk/d/5TuaOZFWpCW24
Качество видео: HDTVRip-AVC
Формат видео: MKV
Видео: 1404 Kbps, 832x468 (16:9), 25 000 fps
Аудио: 320 Kbps, 48.0 KHz, 2 channels, mp3
Format : Matroska
Format version : Version 4 / Version 2
File size : 709 MiB
Duration : 59mn 13s
Overall bit rate mode : Constant
Overall bit rate : 1 674 Kbps
Encoded date : UTC 2016-02-20 16:10:27
Writing application : mkvmerge v8.2.0 ('World of Adventure') 64bit
Writing library : libebml v1.3.1 + libmatroska v1.4.2
DURATION : 00:59:13.128000000
NUMBER_OF_FRAMES : 148047
NUMBER_OF_BYTES : 142125120
_STATISTICS_WRITING_APP : mkvmerge v8.2.0 ('World of Adventure') 64bit
_STATISTICS_WRITING_DATE_UT : 2016-02-20 16:10:27
_STATISTICS_TAGS : BPS DURATION NUMBER_OF_FRAMES NUMBER_OF_BYTES
Video
ID : 1
Format : AVC
Format/Info : Advanced Video Codec
Format profile : Main@L3.1
Format settings, CABAC : Yes
Format settings, ReFrames : 2 frames
Codec ID : V_MPEG4/ISO/AVC
Duration : 59mn 13s
Bit rate mode : Constant
Bit rate : 1 321 Kbps
Nominal bit rate : 1 404 Kbps
Width : 832 pixels
Height : 468 pixels
Display aspect ratio : 16:9
Frame rate mode : Constant
Frame rate : 25.000 fps
Color space : YUV
Chroma subsampling : 4:2:0
Bit depth : 8 bits
Scan type : Progressive
Bits/(Pixel*Frame) : 0.136
Stream size : 560 MiB (79%)
Default : Yes
Forced : No
Audio
ID : 2
Format : MPEG Audio
Format version : Version 1
Format profile : Layer 3
Mode : Joint stereo
Codec ID : A_MPEG/L3
Codec ID/Hint : MP3
Duration : 59mn 13s
Bit rate mode : Constant
Bit rate : 320 Kbps
Channel(s) : 2 channels
Sampling rate : 48.0 KHz
Compression mode : Lossy
Delay relative to video : -40ms
Stream size : 136 MiB (19%)
Default : Yes
Forced : No
У вас нет необходимых прав для просмотра вложений в этом сообщении.