Путешествие. Иран без предрассудков [2012, Документальный, DVB]

Познавательные материалы о странах мира
Торрент Сидеров Личеров Размер
torrent_4267506.torrent
0 0 761.8 МБ
Аватара пользователя
Солнышко
Сообщения: 22944
Зарегистрирован: 13 янв 2016, 22:10

Путешествие. Иран без предрассудков [2012, Документальный, DVB]

Сообщение Солнышко » 26 мар 2018, 14:14

Путешествие. Иран без предрассудков
Год выпуска: 2012
Страна: Росссия
Жанр: Документальный
Продолжительность: 00:23:59
Перевод: Не требуется
Описание: Иран посещает очень немного туристов. В основном из арабских стран. Виной тому - информационный вакуум и множество предрассудков.
Качество: DVB
Формат: MPEG
Видео кодек: MPEG2
Аудио кодек: MPEG1 Layer 2
Видео: MPEG2 Video 720x576 (4:3) 25.00fps ~4 160 Kbps
Аудио: MPEG Audio 48000Hz 2 channels 192 Кбит/сек
T:\03__Моя планета\222__МПЕГ\Путешествие. Иран без предрассудков_DVB by kuzmichm2196 .mpg
General
Complete name : T:\03__Моя планета\222__МПЕГ\Путешествие. Иран без предрассудков_DVB by kuzmichm2196 .mpg
Format : MPEG-PS
File size : 762 MiB
Duration : 23mn 59s
Overall bit rate mode : Variable
Overall bit rate : 4 440 Kbps
Writing library : (c) 1998-2008 Womble Multimedia, Inc. / MPEG Video Wizard (08/2008) / Aug 25 2008
Video #224
ID : 224 (0xE0)
Format : MPEG Video
Format version : Version 2
Format profile : Main@Main
Format settings, BVOP : Yes
Format settings, Matrix : Custom
Format settings, GOP : Variable
Duration : 23mn 59s
Bit rate mode : Variable
Bit rate : 4 160 Kbps
Maximum bit rate : 15.0 Mbps
Width : 720 pixels
Height : 576 pixels
Display aspect ratio : 4:3
Frame rate : 25.000 fps
Standard : PAL
Color space : YUV
Chroma subsampling : 4:2:0
Bit depth : 8 bits
Scan type : Interlaced
Scan order : Top Field First
Compression mode : Lossy
Bits/(Pixel*Frame) : 0.401
Stream size : 714 MiB (94%)
Alignment : (c) 1998-2008 Womble Multimedia, Inc. / MPEG Video Wizard (08/2008) / Aug 25 2008
Title : (c) 1998-2008 Womble Multimedia, Inc. / MPEG Video Wizard (08/2008) / Aug 25 2008
Writing library : (c) 1998-2008 Womble Multimedia, Inc. / MPEG Video Wizard (08/2008) / Aug 25 2008
Audio #192
ID : 192 (0xC0)
Format : MPEG Audio
Format version : Version 1
Format profile : Layer 2
Duration : 23mn 59s
Bit rate mode : Constant
Bit rate : 192 Kbps
Channel(s) : 2 channels
Sampling rate : 48.0 KHz
Compression mode : Lossy
Stream size : 32.9 MiB (4%)
У вас нет необходимых прав для просмотра вложений в этом сообщении.