Киргизские кочевники / 360° - Geo Reportage: Die neuen Nomaden von Kirgisistan / Nomades du Kirghizstan (Вольфганг Мертин / Wolfgang Mertin) [2009, документальный, познавательный, путешествия, DVB] Original (Fre) + Sub (ru hard)

Познавательные материалы о странах мира
Торрент Сидеров Личеров Размер
torrent_4384593.torrent
0 0 1.19 ГБ
Аватара пользователя
Солнышко
Сообщения: 22944
Зарегистрирован: 13 янв 2016, 22:10

Киргизские кочевники / 360° - Geo Reportage: Die neuen Nomaden von Kirgisistan / Nomades du Kirghizstan (Вольфганг Мертин / Wolfgang Mertin) [2009, документальный, познавательный, путешествия, DVB] Original (Fre) + Sub (ru hard)

Сообщение Солнышко » 26 мар 2018, 14:14

Киргизские кочевники
360° - Geo Reportage: Die neuen Nomaden von Kirgisistan / Nomades du Kirghizstan
Год выпуска: 2009
Страна: Франция, Германия
Жанр: документальный, познавательный, путешествия
Продолжительность: 00:52:03
Перевод: Субтитры (перевод Éclair Group)
Русские субтитры: есть
Режиссер: Вольфганг Мертин / Wolfgang Mertin
Описание: Независимый журналист совместного телевизионного канала культуры национального телевидения Германии и Франции Arte Вольфганг Мертин побывал в Киргизии.
Вы готовы к путешествию по этой стране? Нас ждет семья кочевников и 600 голов скота. Мы также увидим последствия климатических изменений.
Граница между Киргизией и Китаем пролегает по северной части Памира. Высота его пиков превышает 7'000 метров. В последнее время таяние ледников ускоряется. Полукочевым пастухам все труднее преодолевать реки, превратившиеся в бурные потоки.
Доп. информация: Собственная запись со спутника (канал TV5MONDE).
Сэмпл: http://multi-up.com/844667
качество: DVB
формат: MPEG-PS
видеокодек: MPEG2
аудиокодек: MP2
Видео: MPEG Video 2, 720x576@1024x576 (16:9), 25 fps, ~3026 kbps avg, 0.292 bit/pixel
Аудио: Французский (48 kHz, MPEG Audio 2, 2 ch, ~192.00 kbps avg)
Формат субтитров: hardsub (неотключаемые)

Код: Выделить всё

Полное имя                               : H:\My Torrents\[apreder]Die_neuen_Nomaden_von_Kirgisistan(2009)DVB.mpg
Формат                                   : MPEG-PS
Размер файла                             : 1,19 Гбайт
Продолжительность                        : 52 м.
Режим общего битрейта                    : Переменный
Общий поток                              : 3283 Кбит/сек
Видео
Идентификатор                            : 224 (0xE0)
Формат                                   : MPEG Video
Версия формата                           : Version 2
Профиль формата                          : Main@Main
Параметр BVOP формата                    : Да
Параметр матрицы формата                 : Выборочная
Параметр GOP формата                     : M=3, N=24
Продолжительность                        : 52 м.
Вид битрейта                             : Переменный
Битрейт                                  : 3026 Кбит/сек
Ширина                                   : 720 пикселей
Высота                                   : 576 пикселей
Соотношение сторон                       : 16:9
Частота кадров                           : 25,000 кадров/сек
Стандарт вещания                         : PAL
Цветовое пространство                    : YUV
Субдискретизация насыщенности            : 4:2:0
Битовая глубина                          : 8 бит
Тип развёртки                            : Прогрессивная
Порядок развёртки                        : Верхнее поле первое
Метод сжатия                             : С потерями
Бит/(Пиксели*Кадры)                      : 0.292
Размер потока                            : 1,10 Гбайт (92%)
Аудио
Идентификатор                            : 192 (0xC0)
Формат                                   : MPEG Audio
Версия формата                           : Version 1
Профиль формата                          : Layer 2
Продолжительность                        : 52 м.
Вид битрейта                             : Постоянный
Битрейт                                  : 192 Кбит/сек
Каналы                                   : 2 канала
Частота                                  : 48,0 КГц
Метод сжатия                             : С потерями
Размер потока                            : 71,5 Мбайт (6%)



658/640√
У вас нет необходимых прав для просмотра вложений в этом сообщении.