Золотой Глобус. Азорские острова / Golden Globe: Azoren (Херберт Ленц / Herbert Lenz, Катрин Вагнер / Kathrin Wagner) [2010, Документальный, HDRip]

Познавательные материалы о странах мира
Торрент Сидеров Личеров Размер
torrent_5026738.torrent
0 0 1.45 ГБ
Аватара пользователя
Солнышко
Сообщения: 22944
Зарегистрирован: 13 янв 2016, 22:10

Золотой Глобус. Азорские острова / Golden Globe: Azoren (Херберт Ленц / Herbert Lenz, Катрин Вагнер / Kathrin Wagner) [2010, Документальный, HDRip]

Сообщение Солнышко » 26 мар 2018, 14:15

Золотой Глобус. Азорские острова / Golden Globe: Azoren

Год выпуска: 2010
Страна: Германия | Komplett-Media
Жанр: Документальный
Продолжительность: 01:34:01
Перевод: Профессиональный одноголосый, DVD R5
Режиссер: Херберт Ленц / Herbert Lenz, Катрин Вагнер / Kathrin Wagner
Субтитры: нет
Описание: Примерно на полпути между Европой и Америкой из волн Атлантического океана выныривает архипелаг, состоящий из девяти крупных островов и нескольких мелких, который гигантские силы вытолкнули из самого сердца Земли. Азорские острова принадлежат Португалии. Самый крупный из них — Сан-Мигел. Из его столицы Понта-Делгада мы отправляемся к вулканическим озерам Лагоа-Азул, Лагоа-Верде и Лагоа-де-Фогу. Мы также полюбуемся гигантской кальдерой Велья и горячими источниками в Фурнаше. Самый западный остров — Флориш с великолепными водопадами и могучим кратером, напоминающим большой амфитеатр. Особенность гористого острова Сан-Жоржи — живописные мысы, так называемые фажас. Третий по величине остров Азоров — Терсейра — очаровывает приезжих атмосферой эпохи Ренессанса, царящей в портовом городке Ангра-ду-Эроизму. Мы осмотрим также виноградники и гроты в вулканической пещере Алгар-ду-Карвао. Самая высокая вершина Португалии — вулкан Пику, расположенный на одноименном острове. Остров прославлен также благодаря прекрасному вину и необыкновенным жителям окрестных вод — могучим китам. На протяжении столетий Хорта, столица острова Фаял, служила пристанищем для моряков, пересекавших Атлантику. Все экскурсии обязательно захватывают также пустыню, когда-то бывшую деревней Капелиньош, возникшую в результате извержения вулкана в 1950-х годах.
За исходник спасибо DeTorquemada.
Тип релиза: HDRip
Контейнер: AVI
Видео: 704x400 (16:9), 25.000 fps, XviD, ~2000 kbps avg
Аудио: 48 kHz, AC3, 2/0 (L,R) ch, ~192 kbps
Сэмпл
General
Complete name : D:\Фильмы\Раздачи\Azores.2010.hdrip.[Aids].avi
Format : AVI
Format/Info : Audio Video Interleave
File size : 1.45 GiB
Duration : 1h 34mn
Overall bit rate : 2 202 Kbps
Writing application : VirtualDubMod 1.5.10.3 | www.virtualdub-fr.org || (build 2550/release)
Writing library : VirtualDubMod build 2550/release
Video
ID : 0
Format : MPEG-4 Visual
Format profile : Advanced Simple@L5
Format settings, BVOP : 1
Format settings, QPel : No
Format settings, GMC : No warppoints
Format settings, Matrix : Custom
Codec ID : XVID
Codec ID/Hint : XviD
Duration : 1h 34mn
Bit rate : 2 000 Kbps
Width : 704 pixels
Height : 400 pixels
Display aspect ratio : 16:9
Frame rate : 25.000 fps
Color space : YUV
Chroma subsampling : 4:2:0
Bit depth : 8 bits
Scan type : Progressive
Compression mode : Lossy
Bits/(Pixel*Frame) : 0.284
Stream size : 1.31 GiB (91%)
Writing library : XviD 1.2.1 (UTC 2008-12-04)
Audio
ID : 1
Format : AC-3
Format/Info : Audio Coding 3
Mode extension : CM (complete main)
Format settings, Endianness : Big
Codec ID : 2000
Duration : 1h 34mn
Bit rate mode : Constant
Bit rate : 192 Kbps
Channel(s) : 2 channels
Channel positions : Front: L R
Sampling rate : 48.0 KHz
Bit depth : 16 bits
Compression mode : Lossy
Stream size : 129 MiB (9%)
Alignment : Split accross interleaves
Interleave, duration : 40 ms (1.00 video frame)
Interleave, preload duration : 500 ms
Релиз группы:
У вас нет необходимых прав для просмотра вложений в этом сообщении.