ТерраМатер. Амур - Амазонка Азии / Terra Mater. Amur - Asiens Amazonas / Серии: 1-3 из 3 (Франц Хафнер / Franz Hafner, Клаус Фехтенбергер / Klaus Feichtenberger) [2015, Документальный, BDRip] VO (СВ Студия) + Original Ger + Sub Rus

Познавательные материалы о странах мира
Торрент Сидеров Личеров Размер
torrent_5439063.torrent
0 0 2.2 ГБ
Аватара пользователя
Солнышко
Сообщения: 22944
Зарегистрирован: 13 янв 2016, 22:10

ТерраМатер. Амур - Амазонка Азии / Terra Mater. Amur - Asiens Amazonas / Серии: 1-3 из 3 (Франц Хафнер / Franz Hafner, Клаус Фехтенбергер / Klaus Feichtenberger) [2015, Документальный, BDRip] VO (СВ Студия) + Original Ger + Sub Rus

Сообщение Солнышко » 26 мар 2018, 14:16

ТерраМатер. Амур - Амазонка Азии / Terra Mater. Amur - Asiens Amazonas
Страна: Австрия
Студия: Arte, Interspot Film-Gesellschaft, NDR Naturfilm, Terra Mater Factual Studios
Жанр: Документальный, природа
Год выпуска: 2015
Продолжительность: 3 x ~ 00:50:00
Перевод: Профессиональный (одногоголосый закадровый) - СВ Студия, текст читает Владимир Курдов
Субтитры: Русские (внешние)
Оригинальная аудиодорожка: Немецкий
Режиссёр: Франц Хафнер / Franz Hafner, Клаус Фехтенбергер / Klaus Feichtenberger
Описание: Амур - это одна из величайших рек нашей планеты и по сей день многие её загадки остаются неразгаданными. Она течёт из сердца Азии к Тихому океану и разделяет две сверхдержавы. Но она же становится водным путём, соединяющим самые разные местности, самые обширные луга Земли, огромные древние леса, наполненные дикой жизнью, грубые лунные пейзажи, созданные вулканическим огнём, влажные субтропические джунгли, бесконечные равнины и безграничные дикие болота. Её воды доходят до северных морей и проливаются дождём над территорией в 4 раза больше Германии. Это не просто река, это целая сеть притоков, озёр и болот, водная гладь размером с континент. Амур - Амазонка Азии
Доп. информация:
Автор релиза -
Заказ и выкуп перевода - ylnian & Ко
Источник для рипа - Blu-Ray (GER) - Terra.Mater.Amur.Asiens.Amazonas.2015.DOKU.DUAL.COMPLETE.BLURAY-iFPD

Сэмпл: https://yadi.sk/i/W4fb0hMA3Lsx7G
Рекламы нет!
Качество видео: BDRip
Формат видео: AVI
Видео: XviD, 720x400 (16:9), 25.000 fps, ~1700 kbps, 0.236 bit/pixel
Аудио 1: Русский AC3, 48000 Гц, 2ch, 192 kbps
Аудио 2: Немецкий AC3, 48000 Гц, 2ch, 192 kbps
Формат субтитров: softsub (SRT) - внешние

Код: Выделить всё

Общее
Полное имя                               : D:\Amur.Asiens.Amazonas.Der.ferne.Osten.2015.BDRip-ylnian\Amur.Asiens.Amazonas.Der.ferne.Osten.1.2015.BDRip-ylnian.avi
Формат                                   : AVI
Формат/Информация                        : Audio Video Interleave
Размер файла                             : 747 Мбайт
Продолжительность                        : 50 м. 3 с.
Общий поток                              : 2086 Кбит/сек
Программа кодирования                    : VirtualDubMod 1.5.10.2 (build 2540/release)
Библиотека кодирования                   : VirtualDubMod build 2540/release
Видео
Идентификатор                            : 0
Формат                                   : MPEG-4 Visual
Профиль формата                          : Advanced Simple@L5
Параметр BVOP формата                    : 1
Параметр QPel формата                    : Нет
Параметр GMC формата                     : Без точки перехода
Параметр матрицы формата                 : Default (MPEG)
Идентификатор кодека                     : XVID
Идентификатор кодека/Подсказка           : XviD
Продолжительность                        : 50 м. 3 с.
Битрейт                                  : 1691 Кбит/сек
Ширина                                   : 720 пикселей
Высота                                   : 400 пикселей
Соотношение сторон                       : 16:9
Частота кадров                           : 20,000 кадров/сек
Цветовое пространство                    : YUV
Субдискретизация насыщенности            : 4:2:0
Битовая глубина                          : 8 бит
Тип развёртки                            : Прогрессивная
Метод сжатия                             : С потерями
Бит/(Пиксели*Кадры)                      : 0.294
Размер потока                            : 605 Мбайт (81%)
Библиотека кодирования                   : XviD 67
Аудио #1
Идентификатор                            : 1
Формат                                   : AC-3
Формат/Информация                        : Audio Coding 3
Параметр Endianness формата              : Big
Идентификатор кодека                     : 2000
Продолжительность                        : 50 м. 3 с.
Вид битрейта                             : Постоянный
Битрейт                                  : 192 Кбит/сек
Каналы                                   : 2 канала
Расположение каналов                     : Front: L R
Частота                                  : 48,0 КГц
Частота кадров                           : 31,250 кадров/сек (1536 spf)
Битовая глубина                          : 16 бит
Метод сжатия                             : С потерями
Размер потока                            : 68,7 Мбайт (9%)
Выравнивание                             : Разделение по промежуткам
Продолжительность промежутка             : 50  мс. (1,00 видеокадр)
Время предзагрузки промежутка            : 500  мс.
Заголовок                                : rus
ServiceKind/String                       : Complete Main
Аудио #2
Идентификатор                            : 2
Формат                                   : AC-3
Формат/Информация                        : Audio Coding 3
Параметр Endianness формата              : Big
Идентификатор кодека                     : 2000
Продолжительность                        : 50 м. 3 с.
Вид битрейта                             : Постоянный
Битрейт                                  : 192 Кбит/сек
Каналы                                   : 2 канала
Расположение каналов                     : Front: L R
Частота                                  : 48,0 КГц
Частота кадров                           : 31,250 кадров/сек (1536 spf)
Битовая глубина                          : 16 бит
Метод сжатия                             : С потерями
Размер потока                            : 68,7 Мбайт (9%)
Выравнивание                             : Разделение по промежуткам
Продолжительность промежутка             : 50  мс. (1,00 видеокадр)
Время предзагрузки промежутка            : 500  мс.
Заголовок                                : original
ServiceKind/String                       : Complete Main
Общее
Полное имя                               : D:\Amur.Asiens.Amazonas.Der.ferne.Osten.2015.BDRip-ylnian\Amur.Asiens.Amazonas.Der.ferne.Osten.1.2015.BDRip-ylnian_rus.srt
Формат                                   : SubRip
Размер файла                             : 48,9 Кбайт
Текст
Формат                                   : SubRip
Метод сжатия                             : Без потерь
Общее
Полное имя                               : D:\Amur.Asiens.Amazonas.Der.ferne.Osten.2015.BDRip-ylnian\Amur.Asiens.Amazonas.Der.ferne.Osten.2.2015.BDRip-ylnian.avi
Формат                                   : AVI
Формат/Информация                        : Audio Video Interleave
Размер файла                             : 751 Мбайт
Продолжительность                        : 50 м. 0 с.
Общий поток                              : 2099 Кбит/сек
Программа кодирования                    : VirtualDubMod 1.5.10.2 (build 2540/release)
Библиотека кодирования                   : VirtualDubMod build 2540/release
Видео
Идентификатор                            : 0
Формат                                   : MPEG-4 Visual
Профиль формата                          : Advanced Simple@L5
Параметр BVOP формата                    : 1
Параметр QPel формата                    : Нет
Параметр GMC формата                     : Без точки перехода
Параметр матрицы формата                 : Default (MPEG)
Идентификатор кодека                     : XVID
Идентификатор кодека/Подсказка           : XviD
Продолжительность                        : 50 м. 0 с.
Битрейт                                  : 1700 Кбит/сек
Ширина                                   : 720 пикселей
Высота                                   : 400 пикселей
Соотношение сторон                       : 16:9
Частота кадров                           : 25,000 кадров/сек
Цветовое пространство                    : YUV
Субдискретизация насыщенности            : 4:2:0
Битовая глубина                          : 8 бит
Тип развёртки                            : Прогрессивная
Метод сжатия                             : С потерями
Бит/(Пиксели*Кадры)                      : 0.236
Размер потока                            : 608 Мбайт (81%)
Библиотека кодирования                   : XviD 67
Аудио #1
Идентификатор                            : 1
Формат                                   : AC-3
Формат/Информация                        : Audio Coding 3
Параметр Endianness формата              : Big
Идентификатор кодека                     : 2000
Продолжительность                        : 50 м. 0 с.
Вид битрейта                             : Постоянный
Битрейт                                  : 192 Кбит/сек
Каналы                                   : 2 канала
Расположение каналов                     : Front: L R
Частота                                  : 48,0 КГц
Частота кадров                           : 31,250 кадров/сек (1536 spf)
Битовая глубина                          : 16 бит
Метод сжатия                             : С потерями
Размер потока                            : 68,7 Мбайт (9%)
Выравнивание                             : Разделение по промежуткам
Продолжительность промежутка             : 40  мс. (1,00 видеокадр)
Время предзагрузки промежутка            : 500  мс.
Заголовок                                : rus
ServiceKind/String                       : Complete Main
Аудио #2
Идентификатор                            : 2
Формат                                   : AC-3
Формат/Информация                        : Audio Coding 3
Параметр Endianness формата              : Big
Идентификатор кодека                     : 2000
Продолжительность                        : 50 м. 0 с.
Вид битрейта                             : Постоянный
Битрейт                                  : 192 Кбит/сек
Каналы                                   : 2 канала
Расположение каналов                     : Front: L R
Частота                                  : 48,0 КГц
Частота кадров                           : 31,250 кадров/сек (1536 spf)
Битовая глубина                          : 16 бит
Метод сжатия                             : С потерями
Размер потока                            : 68,7 Мбайт (9%)
Выравнивание                             : Разделение по промежуткам
Продолжительность промежутка             : 40  мс. (1,00 видеокадр)
Время предзагрузки промежутка            : 500  мс.
Заголовок                                : original
ServiceKind/String                       : Complete Main
Общее
Полное имя                               : D:\Amur.Asiens.Amazonas.Der.ferne.Osten.2015.BDRip-ylnian\Amur.Asiens.Amazonas.Der.ferne.Osten.2.2015.BDRip-ylnian_rus.srt
Формат                                   : SubRip
Размер файла                             : 50,3 Кбайт
Текст
Формат                                   : SubRip
Метод сжатия                             : Без потерь
Общее
Полное имя                               : D:\Amur.Asiens.Amazonas.Der.ferne.Osten.2015.BDRip-ylnian\Amur.Asiens.Amazonas.Der.ferne.Osten.3.2015.BDRip-ylnian.avi
Формат                                   : AVI
Формат/Информация                        : Audio Video Interleave
Размер файла                             : 750 Мбайт
Продолжительность                        : 50 м. 0 с.
Общий поток                              : 2097 Кбит/сек
Программа кодирования                    : VirtualDubMod 1.5.10.2 (build 2540/release)
Библиотека кодирования                   : VirtualDubMod build 2540/release
Видео
Идентификатор                            : 0
Формат                                   : MPEG-4 Visual
Профиль формата                          : Advanced Simple@L5
Параметр BVOP формата                    : 1
Параметр QPel формата                    : Нет
Параметр GMC формата                     : Без точки перехода
Параметр матрицы формата                 : Default (MPEG)
Идентификатор кодека                     : XVID
Идентификатор кодека/Подсказка           : XviD
Продолжительность                        : 50 м. 0 с.
Битрейт                                  : 1699 Кбит/сек
Ширина                                   : 720 пикселей
Высота                                   : 400 пикселей
Соотношение сторон                       : 16:9
Частота кадров                           : 25,000 кадров/сек
Цветовое пространство                    : YUV
Субдискретизация насыщенности            : 4:2:0
Битовая глубина                          : 8 бит
Тип развёртки                            : Прогрессивная
Метод сжатия                             : С потерями
Бит/(Пиксели*Кадры)                      : 0.236
Размер потока                            : 608 Мбайт (81%)
Библиотека кодирования                   : XviD 67
Аудио #1
Идентификатор                            : 1
Формат                                   : AC-3
Формат/Информация                        : Audio Coding 3
Параметр Endianness формата              : Big
Идентификатор кодека                     : 2000
Продолжительность                        : 50 м. 0 с.
Вид битрейта                             : Постоянный
Битрейт                                  : 192 Кбит/сек
Каналы                                   : 2 канала
Расположение каналов                     : Front: L R
Частота                                  : 48,0 КГц
Частота кадров                           : 31,250 кадров/сек (1536 spf)
Битовая глубина                          : 16 бит
Метод сжатия                             : С потерями
Размер потока                            : 68,7 Мбайт (9%)
Выравнивание                             : Разделение по промежуткам
Продолжительность промежутка             : 40  мс. (1,00 видеокадр)
Время предзагрузки промежутка            : 500  мс.
Заголовок                                : rus
ServiceKind/String                       : Complete Main
Аудио #2
Идентификатор                            : 2
Формат                                   : AC-3
Формат/Информация                        : Audio Coding 3
Параметр Endianness формата              : Big
Идентификатор кодека                     : 2000
Продолжительность                        : 50 м. 0 с.
Вид битрейта                             : Постоянный
Битрейт                                  : 192 Кбит/сек
Каналы                                   : 2 канала
Расположение каналов                     : Front: L R
Частота                                  : 48,0 КГц
Частота кадров                           : 31,250 кадров/сек (1536 spf)
Битовая глубина                          : 16 бит
Метод сжатия                             : С потерями
Размер потока                            : 68,7 Мбайт (9%)
Выравнивание                             : Разделение по промежуткам
Продолжительность промежутка             : 40  мс. (1,00 видеокадр)
Время предзагрузки промежутка            : 500  мс.
Заголовок                                : original
ServiceKind/String                       : Complete Main
Общее
Полное имя                               : D:\Amur.Asiens.Amazonas.Der.ferne.Osten.2015.BDRip-ylnian\Amur.Asiens.Amazonas.Der.ferne.Osten.3.2015.BDRip-ylnian_rus.srt
Формат                                   : SubRip
Размер файла                             : 51,4 Кбайт
Текст
Формат                                   : SubRip
Метод сжатия                             : Без потерь
01 серия. Дальний Восток / Der ferne Osten
02 серия. Чёрный Дракон / Der schwarze Drache
03 серия. Святые источники / Die heiligen Quellen
У вас нет необходимых прав для просмотра вложений в этом сообщении.