Экстремальные Серферы-2. Новая Зеландия / Storm Surfers: New Zealand (Chris Nelius) [2011, документальный фильм, SATRip]

Познавательные материалы о странах мира
Торрент Сидеров Личеров Размер
torrent_4464563.torrent
0 0 643.92 МБ
Аватара пользователя
Солнышко
Сообщения: 22944
Зарегистрирован: 13 янв 2016, 22:10

Экстремальные Серферы-2. Новая Зеландия / Storm Surfers: New Zealand (Chris Nelius) [2011, документальный фильм, SATRip]

Сообщение Солнышко » 26 мар 2018, 14:16

Экстремальные Серферы-2. Новая Зеландия / Storm Surfers: New Zealand
Год выпуска: 2011
Страна: Новая Зеландия
Жанр: документальный фильм
Продолжительность: 00:44:14
Перевод: Одноголосый закадровый
Русские субтитры: нет
Режиссер: Chris Nelius
Описание: Австралийские чемпионы серфинга Том Кэролл и Росс Кларк-Джонс направляются в Новую Зеландию, чтобы покорить гигантские волны, которые в полной мере проверят их смелость и знания.
Сэмпл: http://multi-up.com/875216

качество: SATRip
формат: MP4
Видео: H.264, 1900 Кбит/сек, 720x400, 25fps
Аудио: AC3, 1 ch, 48,0 КГц, 128 Кбит/сек

Код: Выделить всё

Complete name                            : Экстремальные Серферы. Новая Зеландия.mp4
Format                                   : MPEG-4
Format profile                           : Base Media / Version 2
Codec ID                                 : mp42
File size                                : 644 MiB
Duration                                 : 44mn 14s
Overall bit rate                         : 2 035 Kbps
Encoded date                             : UTC 2013-05-04 14:49:16
Tagged date                              : UTC 2013-05-04 15:23:56
Writing application                      : HandBrake 0.9.8 2012071700
Video
ID                                       : 1
Format                                   : AVC
Format/Info                              : Advanced Video Codec
Format profile                           : Main@L3.0
Format settings, CABAC                   : Yes
Format settings, ReFrames                : 4 frames
Codec ID                                 : avc1
Codec ID/Info                            : Advanced Video Coding
Duration                                 : 44mn 14s
Bit rate mode                            : Variable
Bit rate                                 : 1 900 Kbps
Width                                    : 720 pixels
Height                                   : 400 pixels
Display aspect ratio                     : 16:9
Frame rate mode                          : Constant
Frame rate                               : 25.000 fps
Color space                              : YUV
Chroma subsampling                       : 4:2:0
Bit depth                                : 8 bits
Scan type                                : Progressive
Bits/(Pixel*Frame)                       : 0.264
Stream size                              : 603 MiB (94%)
Writing library                          : x264 core 120
Encoding settings                        : cabac=1 / ref=3 / deblock=1:-1:-1 / analyse=0x1:0x111 / me=hex / subme=8 / psy=1 / psy_rd=1.00:0.00 / mixed_ref=1 / me_range=16 / chroma_me=1 / trellis=1 / 8x8dct=0 / cqm=0 / deadzone=21,11 / fast_pskip=1 / chroma_qp_offset=-2 / threads=6 / sliced_threads=0 / nr=0 / decimate=1 / interlaced=0 / bluray_compat=0 / constrained_intra=0 / bframes=3 / b_pyramid=2 / b_adapt=1 / b_bias=0 / direct=1 / weightb=1 / open_gop=0 / weightp=1 / keyint=250 / keyint_min=25 / scenecut=40 / intra_refresh=0 / rc_lookahead=10 / rc=abr / mbtree=1 / bitrate=1900 / ratetol=1.0 / qcomp=0.60 / qpmin=3 / qpmax=69 / qpstep=4 / ip_ratio=1.40 / aq=1:1.00
Encoded date                             : UTC 2013-05-04 14:49:16
Tagged date                              : UTC 2013-05-04 15:23:56
Color primaries                          : BT.601 NTSC
Transfer characteristics                 : BT.709
Matrix coefficients                      : BT.601
Audio
ID                                       : 2
Format                                   : AC-3
Format/Info                              : Audio Coding 3
Mode extension                           : CM (complete main)
Format settings, Endianness              : Big
Codec ID                                 : ac-3
Duration                                 : 44mn 14s
Bit rate mode                            : Constant
Bit rate                                 : 128 Kbps
Channel(s)                               : 1 channel
Channel positions                        : Front: C
Sampling rate                            : 48.0 KHz
Bit depth                                : 16 bits
Compression mode                         : Lossy
Delay relative to video                  : 80ms
Stream size                              : 40.5 MiB (6%)
Language                                 : English
Encoded date                             : UTC 2013-05-04 14:49:16
Tagged date                              : UTC 2013-05-04 15:23:55
У вас нет необходимых прав для просмотра вложений в этом сообщении.