Путешествие в Ростов Великий (Елена Дворецкая) [2012, путешествия и туризм, DVDRip]

Познавательные материалы о странах мира
Торрент Сидеров Личеров Размер
torrent_4890453.torrent
0 0 500.05 МБ
Аватара пользователя
Солнышко
Сообщения: 22944
Зарегистрирован: 13 янв 2016, 22:10

Путешествие в Ростов Великий (Елена Дворецкая) [2012, путешествия и туризм, DVDRip]

Сообщение Солнышко » 26 мар 2018, 14:16

Путешествие в Ростов Великий
Дата/Год выпуска: 2012
Страна: Россия
Жанр: путешествия и туризм
Продолжительность: 00:40:34
Перевод: Не требуется
Русские субтитры: нет
Оригинальная аудиодорожка: русский
Режиссер: Елена Дворецкая
Описание: Ростов Великий - один из восьми городов классического Золотого кольца России, самый посещаемый, самый любимый, самый древний не только среди своих *золотых* собратьев, но и других городов Северо-Восточной Руси. Впервые город упоминается в летописи *Повесть временных лет* под 862 годом. Здесь похоронено много святых, которые жили в Ростове. Здесь замечательная архитектура храмов и монастырей, а также митрополичьего двора. Все это делает Ростов Великим привлекательным как для верующих, так и для туристов-путешественников. И действительно, кажется, что сейчас невозможно встретить человека, который никогда не был в этом замечательном городе.
качество: DVDRip
формат: AVI
Видео: MPEG4, XviD, 704x528 (4:3), 25.000 fps, 1 522 Kbps (0.164 bit/pixel)
Аудио: AC-3, 48.0 KHz, 2 ch, 192 Kbps, CBR

Код: Выделить всё

General
Complete name                            : G:\документалка\Путешествие в Ростов Великий.avi
Format                                   : AVI
Format/Info                              : Audio Video Interleave
File size                                : 500 MiB
Duration                                 : 40mn 33s
Overall bit rate                         : 1 724 Kbps
Writing application                      : VirtualDubMod 1.5.10.2 (build 2540/release)
Writing library                          : VirtualDubMod build 2540/release
Video
ID                                       : 0
Format                                   : MPEG-4 Visual
Format profile                           : Advanced Simple@L5
Format settings, BVOP                    : 4
Format settings, QPel                    : No
Format settings, GMC                     : No warppoints
Format settings, Matrix                  : Default (H.263)
Codec ID                                 : XVID
Codec ID/Hint                            : XviD
Duration                                 : 40mn 33s
Bit rate                                 : 1 522 Kbps
Width                                    : 704 pixels
Height                                   : 528 pixels
Display aspect ratio                     : 4:3
Frame rate                               : 25.000 fps
Color space                              : YUV
Chroma subsampling                       : 4:2:0
Bit depth                                : 8 bits
Scan type                                : Progressive
Compression mode                         : Lossy
Bits/(Pixel*Frame)                       : 0.164
Stream size                              : 442 MiB (88%)
Writing library                          : XviD 1.2.1 (UTC 2008-12-04)
Audio
ID                                       : 1
Format                                   : AC-3
Format/Info                              : Audio Coding 3
Mode extension                           : CM (complete main)
Format settings, Endianness              : Big
Codec ID                                 : 2000
Duration                                 : 40mn 33s
Bit rate mode                            : Constant
Bit rate                                 : 192 Kbps
Channel(s)                               : 2 channels
Channel positions                        : Front: L R
Sampling rate                            : 48.0 KHz
Bit depth                                : 16 bits
Compression mode                         : Lossy
Stream size                              : 55.7 MiB (11%)
Alignment                                : Split accross interleaves
Interleave, duration                     : 40 ms (1.00 video frame)
Interleave, preload duration             : 500 ms
У вас нет необходимых прав для просмотра вложений в этом сообщении.